K.C. Undercover S03E10 The Truth Will Set You Free 1080p WEB-DL D...

  • Category TV
  • Type HD
  • Language English
  • Total size 911.2 MB
  • Uploaded By LazyRips
  • Downloads 20
  • Last checked 6 days ago
  • Date uploaded 1 week ago
  • Seeders 0
  • Leechers 2

Infohash : 6DF4CE74E2946FA769C6A3168B5AF6DD208D8D76

K.C. Undercover:

Video
ID : 1
Format : AVC
Format/Info : Advanced Video Codec
Format profile : [email protected]
Format settings, CABAC : Yes
Format settings, RefFrames : 4 frames
Codec ID : V_MPEG4/ISO/AVC
Duration : 22 min 54 s
Bit rate : 5 176 kb/s
Width : 1 920 pixels
Height : 1 080 pixels
Display aspect ratio : 16:9
Frame rate mode : Constant
Frame rate : 23.976 (24000/1001) FPS
Color space : YUV
Chroma subsampling : 4:2:0
Bit depth : 8 bits
Scan type : Progressive
Bits/(Pixel*Frame) : 0.104
Stream size : 848 MiB (93%)
Language : English
Default : Yes
Forced : No
Color range : Limited
Color primaries : BT.709
Transfer characteristics : BT.709
Matrix coefficients : BT.709

Audio
ID : 2
Format : AC-3
Format/Info : Audio Coding 3
Format settings, Endianness : Big
Codec ID : A_AC3
Duration : 22 min 54 s
Bit rate mode : Constant
Bit rate : 384 kb/s
Channel(s) : 6 channels
Channel positions : Front: L C R, Side: L R, LFE
Sampling rate : 48.0 kHz
Frame rate : 31.250 FPS (1536 SPF)
Bit depth : 16 bits
Compression mode : Lossy
Delay relative to video : -42 ms
Stream size : 62.9 MiB (7%)
Language : English
Service kind : Complete Main
Default : Yes
Forced : No

Text
ID : 3
Format : UTF-8
Codec ID : S_TEXT/UTF8
Codec ID/Info : UTF-8 Plain Text
Duration : 22 min 52 s
Bit rate : 132 b/s
Count of elements : 487
Stream size : 22.2 KiB (0%)
Language : English
Default : Yes
Forced : No

Screenshots:

Files:

  • K.C.Undercover.S03E10.The.Truth.Will.Set.You.Free.1080p.WEB-DL.DD5.1.H.264-LAZY.mkv (911.2 MB)

There are currently no comments. Feel free to leave one :)

Code:

  • udp://tracker.opentrackr.org:1337/announce
  • udp://tracker.coppersurfer.tk:6969/announce
  • udp://9.rarbg.me:2780/announce
  • udp://glotorrents.pw:6969/announce
  • udp://tracker.istole.it:80/announce
  • udp://tracker4.piratux.com:6969/announce
  • udp://tracker.publicbt.com:80/announce
  • udp://coppersurfer.tk:6969/announce
  • udp://open.demonii.com:1337/announce
  • udp://tracker.openbittorrent.com:80/announce