A.Question.of.Faith.2017.CAM.XViD-26k

  • Category Movies
  • Type Divx/Xvid
  • Language English
  • Total size 1.4 GB
  • Uploaded By mazemaze16
  • Downloads 368
  • Last checked 5 days ago
  • Date uploaded 1 week ago
  • Seeders 38
  • Leechers 15

A Question of Faith

When Tragedy Strikes three Families, their Destiny forces them on a coverging path and mercy as the challenges of their fate could also resurrect their beliefs

Infohash : 1E73D0A697D3B94D051EEFAF0FEB115A0C4BDA67

A.Question.of.Faith.2017.CAM.XViD-26k






http://www.imdb.com/title/tt6054650



Plot:

When tragedy strikes three families, their destiny forces them on a converging path to discover God's love, grace and mercy as the challenges of their fate could also resurrect their beliefs.


Sources - VIDEO: A Friend ....Thanks :P
AUDIO: A Friend ....Thanks :P



Complete name : A.Question.of.Faith.2017.CAM.XViD-26k.avi
Format : AVI
Format/Info : Audio Video Interleave
File size : 1.38 GiB
Duration : 1h 40mn
Overall bit rate : 1 960 Kbps
Writing library : VirtualDub build 32839/release

Video
ID : 0
Format : MPEG-4 Visual
Format profile : Advanced [email protected]
Format settings, BVOP : 2
Format settings, QPel : Yes
Format settings, GMC : No warppoints
Format settings, Matrix : Default (H.263)
Muxing mode : Packed bitstream
Codec ID : XVID
Codec ID/Hint : XviD
Duration : 1h 40mn
Bit rate : 1 820 Kbps
Width : 720 pixels
Height : 368 pixels
Display aspect ratio : 1.957
Frame rate : 29.970 fps
Color space : YUV
Chroma subsampling : 4:2:0
Bit depth : 8 bits
Scan type : Progressive
Compression mode : Lossy
Bits/(Pixel*Frame) : 0.229
Stream size : 1.28 GiB (93%)
Writing library : XviD 67

Audio
ID : 1
Format : MPEG Audio
Format version : Version 1
Format profile : Layer 3
Mode : Joint stereo
Mode extension : MS Stereo
Codec ID : 55
Codec ID/Hint : MP3
Duration : 1h 40mn
Bit rate mode : Constant
Bit rate : 128 Kbps
Channel(s) : 2 channels
Sampling rate : 48.0 KHz
Compression mode : Lossy
Stream size : 92.0 MiB (7%)
Alignment : Split accross interleaves
Interleave, duration : 33 ms (1.00 video frame)
Writing library : LAME3.99r
Encoding settings : -m j -V 4 -q 2 -lowpass 17 -b 128





Notes -

Took the source we were passed and went to work crop, resize, denoise and few other tweaks then just remuxed audio.. ENJOY ...


DOES HAVE THE SCROLLING WATERMARK WHICH IS HARDLY NOTICABLE MOST THE TIME


Screens:

Files:

A.Question.of.Faith.2017.CAM.XViD-26k
  • A.Question.of.Faith.2017.CAM.XViD-26k.avi (1.4 GB)
  • NFO.NFO (9.7 KB)
  • sample 1.avi (26.0 MB)
  • sample 2.avi (33.4 MB)

Comments

Code:

  • udp://tracker.ilibr.org:6969/announce
  • udp://9.rarbg.com:2710/announce
  • udp://9.rarbg.to:2710/announce
  • udp://tracker.leechers-paradise.org:6969/announce
  • udp://eddie4.nl:6969/announce
  • udp://ipv4.tracker.harry.lu:80/announce
  • udp://explodie.org:6969/announce
  • udp://p4p.arenabg.com:1337/announce
  • udp://p4p.arenabg.ch:1337/announce
  • udp://tracker.zer0day.to:1337/announce
  • udp://tracker.opentrackr.org:1337/announce
  • udp://tracker.ilibr.org:80/announce
  • udp://tracker.coppersurfer.tk:6969/announce
  • udp://tracker.coppersurfer.tk:6969
  • udp://9.rarbg.me:2710/announce