Qarib Qarib Singlle 2017 Hindi Pre-DVDRip x264 AAC { TaRa }

  • Category Movies
  • Type Bollywood
  • Language Hindi
  • Total size 763.7 MB
  • Uploaded By SkTara
  • Downloads 5564
  • Last checked 4 days ago
  • Date uploaded 1 week ago
  • Seeders 213
  • Leechers 75

Qarib Qarib Singlle

Drama

Jaya and Yogi on their journey to retrace past relationships that end up in the most eventful, strange and yet the most crazy trip of their lives... but don't worry... Saath Jeene Marne Wali Love Story Nahi Hai Inki

Infohash : C450B4995772EAF7ED17053BCD1BDF62085EE819


Qarib Qarib Singlle 2017 Hindi Pre-DVDRip x264 AAC { TaRa }.mkv



Complete name               : Qarib Qarib Singlle 2017 Hindi Pre-DVDRip x264 AAC { TaRa }.mkv
Format                      : Matroska
Format version              : Version 4 / Version 2
File size                   : 763 MiB
Duration                    : 1 h 55 min
Overall bit rate            : 921 kb/s
===================================================================
Video
ID                          : 1
Format                      : AVC
Format/Info                 : Advanced Video Codec
Format profile              : [email protected]
Format settings, CABAC      : Yes
Format settings, ReFrames   : 8 frames
Codec ID                    : V_MPEG4/ISO/AVC
Duration                    : 1 h 55 min
Bit rate                    : 761 kb/s
Width                       : 640 pixels
Height                      : 312 pixels
Display aspect ratio        : 2.051
Frame rate mode             : Constant
Frame rate                  : 25.000 FPS
Color space                 : YUV
Chroma subsampling          : 4:2:0
Bit depth                   : 8 bits
Scan type                   : Progressive
Bits/(Pixel*Frame)          : 0.152
Stream size                 : 631 MiB (83%)
Language                    : English
Default                     : Yes
Forced                      : No
===================================================================
Audio
ID                          : 2
Format                      : AAC
Format/Info                 : Advanced Audio Codec
Format profile              : LC
Codec ID                    : A_AAC
Duration                    : 1 h 55 min
Bit rate                    : 158 kb/s
Channel(s)                  : 2 channels
Channel positions           : Front: L R
Sampling rate               : 44.1 kHz
Frame rate                  : 43.066 FPS (1024 spf)
Compression mode            : Lossy
Stream size                 : 131 MiB (17%)
Default                     : Yes
Forced                      : No
===================================================================



























Files:

Qarib Qarib Singlle 2017 Hindi Pre-DVDRip x264 AAC { TaRa }
  • Torrent Downloaded From ssec.life.txt (0.7 KB)
  • Qarib Qarib Singlle 2017 Hindi Pre-DVDRip x264 AAC { TaRa }.nfo (6.5 KB)
  • maxresdefault.jpg (205.6 KB)
  • MV5BMGE0YWM0N2Mt[email protected]._V1_SY1000_CR0,0,690,1000_AL_.jpg (220.1 KB)
  • Qarib Qarib Singlle 2017 Hindi Pre-DVDRip x264 AAC { TaRa }.mkv (763.2 MB)

Comments

Code:

  • udp://tracker.coppersurfer.tk:6969/announce
  • udp://tracker.pirateparty.gr:6969/announce
  • udp://shadowshq.yi.org:6969/announce
  • udp://eddie4.nl:6969/announce
  • udp://tracker.leechers-paradise.org:6969/announce
  • udp://tracker.opentrackr.org:1337/announce
  • udp://p4p.arenabg.ch:1337/announce
  • udp://p4p.arenabg.com:1337/announce
  • udp://9.rarbg.me:2750/announce
  • udp://9.rarbg.to:2730/announce
  • udp://tracker.coppersurfer.tk:80/announce
  • udp://tracker.vanitycore.co:6969/announce
  • udp://public.popcorn-tracker.org:6969/announce
  • udp://tracker.opentrackr.org:1337/announce
  • udp://tracker.zer0day.to:1337/announce