Shaadi Mein Zaroor Aana 2017 Hindi Pre-DVDRip x264 AAC { TaRa }

  • Category Movies
  • Type Bollywood
  • Language Hindi
  • Total size 772.1 MB
  • Uploaded By SkTara
  • Downloads 7265
  • Last checked 1 week ago
  • Date uploaded 1 week ago
  • Seeders 167
  • Leechers 44

Shaadi Mein Zaroor Aana

RomanceDramaFamily

Satyendra aka Sattu (Rajkummar Rao) and Aarti (Kriti Kharbanda) meet for a proposed arranged marriage and fall in love in the process. On the night of their marriage, an unexpected turn of events turns their world upside down. Set in the backdrop of India's civil services, Shaadi Mein Zaroor Aana explores the challenges that Satyendra and Aarti face as a middle-class couple in India.

Infohash : 0FF3DB01109189EF89494283208062E1A38F5B59


Shaadi Mein Zaroor Aana 2017 Hindi Pre-DVDRip x264 AAC { TaRa }.mkv



===================================================================
General
Complete name               : Shaadi Mein Zaroor Aana 2017 Hindi Pre-DVDRip x264 AAC { TaRa }.mkv
Format                      : Matroska
Format version              : Version 4 / Version 2
File size                   : 772 MiB
Duration                    : 2 h 12 min
===================================================================
Video
ID                          : 1
Format                      : AVC
Format/Info                 : Advanced Video Codec
Format profile              : [email protected]
Format settings, CABAC      : Yes
Format settings, ReFrames   : 8 frames
Codec ID                    : V_MPEG4/ISO/AVC
Duration                    : 2 h 12 min
Bit rate                    : 657 kb/s
Width                       : 640 pixels
Height                      : 272 pixels
Display aspect ratio        : 2.35:1
Frame rate mode             : Constant
Frame rate                  : 25.000 FPS
Color space                 : YUV
Chroma subsampling          : 4:2:0
Bit depth                   : 8 bits
Scan type                   : Progressive
Bits/(Pixel*Frame)          : 0.151
Stream size                 : 621 MiB (80%)
Language                    : English
Default                     : Yes
Forced                      : No
===================================================================
Audio
ID                          : 2
Format                      : AAC
Format/Info                 : Advanced Audio Codec
Format profile              : LC
Codec ID                    : A_AAC
Duration                    : 2 h 12 min
Bit rate                    : 158 kb/s
Channel(s)                  : 2 channels
Channel positions           : Front: L R
Sampling rate               : 44.1 kHz
Frame rate                  : 43.066 FPS (1024 spf)
Compression mode            : Lossy
Stream size                 : 149 MiB (19%)
Default                     : Yes
Forced                      : No
===================================================================









































Files:

Shaadi Mein Zaroor Aan 2017 Hindi Pre-DVDRip x264 AAC { TaRa }
  • Torrent Downloaded From ssec.life.txt (0.7 KB)
  • Shaadi Mein Zaroor Aan 2017 Hindi Pre-DVDRip x264 AAC { TaRa }.nfo (6.5 KB)
  • MV5BODFkMDRjMWQt[email protected]._V1_SY1000_CR0,0,694,1000_AL_.jpg (215.9 KB)
  • 631074-shaadi-zaroor.jpg (245.9 KB)
  • Shaadi Mein Zaroor Aan 2017 Hindi Pre-DVDRip x264 AAC { TaRa }.mkv (771.6 MB)

Comments

Code:

  • udp://tracker.coppersurfer.tk:6969/announce
  • udp://tracker.pirateparty.gr:6969/announce
  • udp://shadowshq.yi.org:6969/announce
  • udp://eddie4.nl:6969/announce
  • udp://tracker.leechers-paradise.org:6969/announce
  • udp://tracker.opentrackr.org:1337/announce
  • udp://p4p.arenabg.ch:1337/announce
  • udp://p4p.arenabg.com:1337/announce
  • udp://9.rarbg.me:2750/announce
  • udp://9.rarbg.to:2730/announce
  • udp://tracker.coppersurfer.tk:80/announce
  • udp://tracker.vanitycore.co:6969/announce
  • udp://public.popcorn-tracker.org:6969/announce
  • udp://tracker.opentrackr.org:1337/announce
  • udp://tracker.zer0day.to:1337/announce