Murder.on.the.Orient.Express.1974.RESTORED.720p.BluRay.X264-AMIAB...

  • Category Movies
  • Type HD
  • Language English
  • Total size 7.7 GB
  • Uploaded By showstopper
  • Downloads 55
  • Last checked 6 days ago
  • Date uploaded 1 week ago
  • Seeders 1
  • Leechers 2

Murder on the Orient Express

DramaMysteryThriller

In 1935, when his train is stopped by deep snow, detective Hercule Poirot is called on to solve a murder that occurred in his car the night before.

Infohash : A1063C9D586DAFBB934C941BE3AB81019909E8FB

Murder.on.the.Orient.Express.1974.RESTORED.720p.BluRay.X264-AMIABLE

ImDb: http://www.imdb.com/title/tt3402236



Complete name : Murder.on.the.Orient.Express.1974.RESTORED.720p.BluRay.X264-AMIABLE.mkv
Format : Matroska
Format version : Version 4 / Version 2
File size : 7.65 GiB
Duration : 2 h 7 min
Overall bit rate : 8 596 kb/s
Encoded date : UTC 2010-02-22 21:41:29
Writing application : no_variable_data
Writing library : no_variable_data

Video
ID : 1
Format : AVC
Format/Info : Advanced Video Codec
Format profile : [email protected]
Format settings, CABAC : Yes
Format settings, ReFrames : 9 frames
Codec ID : V_MPEG4/ISO/AVC
Duration : 2 h 7 min
Bit rate : 7 825 kb/s
Width : 1 232 pixels
Height : 720 pixels
Display aspect ratio : 1.711
Frame rate mode : Constant
Frame rate : 24.000 FPS
Color space : YUV
Chroma subsampling : 4:2:0
Bit depth : 8 bits
Scan type : Progressive
Bits/(Pixel*Frame) : 0.368
Stream size : 6.82 GiB (89%)
Writing library : x264 core 152 r2851 ba24899
Encoding settings : cabac=1 / ref=9 / deblock=1:-3:-3 / analyse=0x3:0x133 / me=umh / subme=10 / psy=1 / psy_rd=1.15:0.00 / mixed_ref=1 / me_range=24 / chroma_me=1 / trellis=2 / 8x8dct=1 / cqm=0 / deadzone=21,11 / fast_pskip=0 / chroma_qp_offset=-2 / threads=22 / lookahead_threads=3 / sliced_threads=0 / nr=0 / decimate=1 / interlaced=0 / bluray_compat=0 / constrained_intra=0 / bframes=8 / b_pyramid=2 / b_adapt=2 / b_bias=0 / direct=3 / weightb=1 / open_gop=0 / weightp=2 / keyint=240 / keyint_min=24 / scenecut=40 / intra_refresh=0 / rc_lookahead=60 / rc=2pass / mbtree=1 / bitrate=7825 / ratetol=1.0 / qcomp=0.60 / qpmin=0 / qpmax=69 / qpstep=4 / cplxblur=20.0 / qblur=0.5 / ip_ratio=1.30 / aq=3:0.75
Default : Yes
Forced : No
Statistics Tags Issue : no_variable_data 1970-01-01 00:00:00 / no_variable_data 2010-02-22 21:41:29
FromStats_BitRate : 7825635
FromStats_Duration : 02:07:25.834000000
FromStats_FrameCount : 183500
FromStats_StreamSize : 7479188796

Audio
ID : 2
Format : DTS
Format/Info : Digital Theater Systems
Mode : 16
Format settings, Endianness : Big
Codec ID : A_DTS
Duration : 2 h 7 min
Bit rate mode : Constant
Bit rate : 768 kb/s
Channel(s) : 2 channels
Channel positions : Front: L R
Sampling rate : 48.0 kHz
Frame rate : 93.750 FPS (512 spf)
Bit depth : 24 bits
Compression mode : Lossy
Stream size : 700 MiB (9%)
Language : English
Default : Yes
Forced : No
Statistics Tags Issue : no_variable_data 1970-01-01 00:00:00 / no_variable_data 2010-02-22 21:41:29
FromStats_BitRate : 767999
FromStats_Duration : 02:07:25.878000000
FromStats_FrameCount : 716801
FromStats_StreamSize : 734004224

Text #1
ID : 3
Format : UTF-8
Codec ID : S_TEXT/UTF8
Codec ID/Info : UTF-8 Plain Text
Language : English
Default : No
Forced : No
Statistics Tags Issue : no_variable_data 1970-01-01 00:00:00 / no_variable_data 2010-02-22 21:41:29
FromStats_BitRate : 71
FromStats_Duration : 01:58:02.125000000
FromStats_FrameCount : 1678
FromStats_StreamSize : 63443

Text #2
ID : 4
Format : UTF-8
Codec ID : S_TEXT/UTF8
Codec ID/Info : UTF-8 Plain Text
Title : SDH
Language : English
Default : No
Forced : No
Statistics Tags Issue : no_variable_data 1970-01-01 00:00:00 / no_variable_data 2010-02-22 21:41:29
FromStats_BitRate : 72
FromStats_Duration : 01:59:54.708000000
FromStats_FrameCount : 1754
FromStats_StreamSize : 65590

Menu
00:00:00.000 : en:00:00:00.000
00:10:06.625 : en:00:10:06.625
00:20:46.833 : en:00:20:46.833
00:31:21.667 : en:00:31:21.667
00:41:18.833 : en:00:41:18.833
00:52:10.500 : en:00:52:10.500
01:02:49.583 : en:01:02:49.583
01:11:00.458 : en:01:11:00.458
01:23:53.833 : en:01:23:53.833
01:34:24.958 : en:01:34:24.958
01:44:55.250 : en:01:44:55.250
01:55:43.625 : en:01:55:43.625






Click To View Screenshot

Click To View Screenshot

Click To View Screenshot

Files:

Murder.on.the.Orient.Express.1974.RESTORED.720p.BluRay.X264-AMIABLE
  • Murder.on.the.Orient.Express.1974.RESTORED.720p.BluRay.X264-AMIABLE.mkv (7.7 GB)
  • murder.on.the.orient.express.1974.restored.720p.bluray.x264-amiable.nfo (1.5 KB)

There are currently no comments. Feel free to leave one :)

Code:

  • udp://tracker.coppersurfer.tk:6969/announce
  • udp://tracker.pirateparty.gr:6969/announce
  • udp://shadowshq.yi.org:6969/announce
  • udp://eddie4.nl:6969/announce
  • udp://tracker.leechers-paradise.org:6969/announce
  • udp://tracker.opentrackr.org:1337/announce
  • udp://p4p.arenabg.ch:1337/announce
  • udp://p4p.arenabg.com:1337/announce
  • udp://9.rarbg.me:2710/announce
  • udp://9.rarbg.to:2710/announce
  • udp://ipv4.tracker.harry.lu:80/announce
  • udp://tracker.grepler.com:6969/announce
  • udp://public.popcorn-tracker.org:6969/announce
  • udp://tracker.opentrackr.org:1337/announce
  • udp://tracker.zer0day.to:1337/announce