Blade.of.the.Immortal.2017.BDRip.XviD.AC3-EVO

  • Category Movies
  • Type Divx/Xvid
  • Language English
  • Total size 1.5 GB
  • Uploaded By showstopper
  • Downloads 124
  • Last checked 1 week ago
  • Date uploaded 1 week ago
  • Seeders 11
  • Leechers 7

Infohash : 09A1463FE65120289E9B9E604A6BF078A0F08C25

Blade.of.the.Immortal.2017.BDRip.XviD.AC3-EVO

ImDb: http://www.imdb.com/title/tt5084170



Complete name : Blade.of.the.Immortal.2017.BDRip.XviD.AC3-EVO.avi
Format : AVI
Format/Info : Audio Video Interleave
File size : 1.47 GiB
Duration : 2 h 20 min
Overall bit rate : 1 490 kb/s
Writing library : VirtualDub build 32593/release

Video
ID : 0
Format : MPEG-4 Visual
Format profile : Advanced [email protected]
Format settings, BVOP : 2
Format settings, QPel : No
Format settings, GMC : No warppoints
Format settings, Matrix : Default (H.263)
Muxing mode : Packed bitstream
Codec ID : XVID
Codec ID/Hint : XviD
Duration : 2 h 20 min
Bit rate : 1 097 kb/s
Width : 720 pixels
Height : 304 pixels
Display aspect ratio : 2.35:1
Frame rate : 23.976 (24000/1001) FPS
Color space : YUV
Chroma subsampling : 4:2:0
Bit depth : 8 bits
Scan type : Progressive
Compression mode : Lossy
Bits/(Pixel*Frame) : 0.209
Stream size : 1.08 GiB (74%)
Writing library : XviD 66

Audio
ID : 1
Format : AC-3
Format/Info : Audio Coding 3
Format settings, Endianness : Big
Codec ID : 2000
Duration : 2 h 20 min
Bit rate mode : Constant
Bit rate : 384 kb/s
Channel(s) : 6 channels
Channel positions : Front: L C R, Side: L R, LFE
Sampling rate : 48.0 kHz
Frame rate : 31.250 FPS (1536 spf)
Bit depth : 16 bits
Compression mode : Lossy
Stream size : 387 MiB (26%)
Alignment : Aligned on interleaves
Interleave, duration : 42 ms (1.00 video frame)
Interleave, preload duration : 512 ms
Service kind : Complete Main






Click To View Screenshot

Click To View Screenshot

Click To View Screenshot

Files:

Blade.of.the.Immortal.2017.BDRip.XviD.AC3-EVO
  • Blade.of.the.Immortal.2017.BDRip.XviD.AC3-EVO.avi (1.5 GB)
  • Blade.of.the.Immortal.2017.BDRip.XviD.AC3-EVO.nfo (0.0 KB)
  • Sample
    • sample.avi (6.6 MB)
    Subtitles
    • English.srt (62.4 KB)

There are currently no comments. Feel free to leave one :)

Code:

  • udp://tracker.coppersurfer.tk:6969/announce
  • udp://tracker.pirateparty.gr:6969/announce
  • udp://shadowshq.yi.org:6969/announce
  • udp://eddie4.nl:6969/announce
  • udp://tracker.leechers-paradise.org:6969/announce
  • udp://tracker.opentrackr.org:1337/announce
  • udp://p4p.arenabg.ch:1337/announce
  • udp://p4p.arenabg.com:1337/announce
  • udp://9.rarbg.me:2710/announce
  • udp://9.rarbg.to:2710/announce
  • udp://ipv4.tracker.harry.lu:80/announce
  • udp://tracker.grepler.com:6969/announce
  • udp://public.popcorn-tracker.org:6969/announce
  • udp://tracker.opentrackr.org:1337/announce
  • udp://tracker.zer0day.to:1337/announce