White House Down 2013 720p BluRay x264 Dual Audio [Hindi + Eng] D...

  • Category Movies
  • Type Dubs/Dual Audio
  • Language Hindi
  • Total size 3.4 GB
  • Uploaded By TheFighter
  • Downloads 391
  • Last checked 5 days ago
  • Date uploaded 1 week ago
  • Seeders 4
  • Leechers 7

White House Down

ActionDramaThriller

Capitol Policeman John Cale has just been denied his dream job with the Secret Service of protecting President James Sawyer. Not wanting to let down his little girl with the news, he takes her on a tour of the White House, when the complex is overtaken by a heavily armed paramilitary group. Now, with the nation's government falling into chaos and time running out, it's up to Cale to save the president, his daughter, and the country.

Infohash : E062133C9E13AF3C10DE388CC39A97040980BE95



White House Down 2013 720p BluRay x264 Dual
Audio [Hindi + Eng] DD 5.0 - MSubs ~ Ranvijay


Thanks To Rohit Sharma For Multi Audios

Like Our FilmyThugs Official Page




SAMPLE

Format                                   : Matroska
Format version                           : Version 4 / Version 2
File size                                : 3.37 GiB
Duration                                 : 2 h 11 min
Overall bit rate                         : 3 671 kb/s

Video
ID                                       : 1
Format                                   : AVC
Duration                                 : 2 h 11 min
Bit rate                                 : 2 999 kb/s
Width                                    : 1 280 pixels
Height                                   : 534 pixels
Display aspect ratio                     : 2.40:1
Frame rate mode                          : Constant
Frame rate                               : 23.976 (24000/1001) FPS
Color space                              : YUV
Chroma subsampling                       : 4:2:0
Bit depth                                : 8 bits
Scan type                                : Progressive
Bits/(Pixel*Frame)                       : 0.183
Stream size                              : 2.75 GiB (82%)
Default                                  : Yes
Forced                                   : No

Audio #1
ID                                       : 5
Format                                   : AC-3
Format/Info                              : Audio Coding 3
Codec ID                                 : A_AC3
Duration                                 : 2 h 11 min
Bit rate mode                            : Constant
Bit rate                                 : 448 kb/s
Channel(s)                               : 6 channels
Channel positions                        : Front: L C R, Side: L R, LFE
Sampling rate                            : 48.0 kHz
Frame rate                               : 31.250 FPS (1536 SPF)
Bit depth                                : 16 bits
Compression mode                         : Lossy
Stream size                              : 421 MiB (12%)
Title                                    : ~Ranvijay~
Language                                 : Hindi
Service kind                             : Complete Main
Default                                  : Yes
Forced                                   : No

Audio #2
ID                                       : 6
Format                                   : AC-3
Format/Info                              : Audio Coding 3
Codec ID                                 : A_AC3
Duration                                 : 2 h 11 min
Bit rate mode                            : Constant
Bit rate                                 : 224 kb/s
Channel(s)                               : 6 channels
Channel positions                        : Front: L C R, Side: L R, LFE
Sampling rate                            : 48.0 kHz
Frame rate                               : 31.250 FPS (1536 SPF)
Bit depth                                : 16 bits
Compression mode                         : Lossy
Stream size                              : 211 MiB (6%)
Title                                    : ~Ranvijay~
Language                                 : English
Service kind                             : Complete Main
Default                                  : No
Forced                                   : No

Text #1
ID                                       : 2
Format                                   : UTF-8
Codec ID                                 : S_TEXT/UTF8
Codec ID/Info                            : UTF-8 Plain Text
Duration                                 : 2 h 4 min
Bit rate                                 : 212 b/s
Count of elements                        : 1923
Stream size                              : 193 KiB (0%)
Title                                    : ~Ranvijay~
Language                                 : Hindi
Default                                  : No
Forced                                   : No

Text #2
ID                                       : 3
Format                                   : UTF-8
Codec ID                                 : S_TEXT/UTF8
Codec ID/Info                            : UTF-8 Plain Text
Duration                                 : 2 h 4 min
Bit rate                                 : 252 b/s
Count of elements                        : 1923
Stream size                              : 230 KiB (0%)
Title                                    : ~Ranvijay~
Language                                 : Tamil
Default                                  : No
Forced                                   : No

Text #3
ID                                       : 4
Format                                   : UTF-8
Codec ID                                 : S_TEXT/UTF8
Codec ID/Info                            : UTF-8 Plain Text
Duration                                 : 2 h 4 min
Bit rate                                 : 228 b/s
Count of elements                        : 1923
Stream size                              : 208 KiB (0%)
Title                                    : ~Ranvijay~
Language                                 : Telugu
Default                                  : No
Forced                                   : No

Text #4
ID                                       : 7
Format                                   : UTF-8
Codec ID                                 : S_TEXT/UTF8
Codec ID/Info                            : UTF-8 Plain Text
Duration                                 : 2 h 5 min
Bit rate                                 : 86 b/s
Count of elements                        : 1926
Stream size                              : 79.2 KiB (0%)
Title                                    : ~Ranvijay~
Language                                 : English
Default                                  : Yes
Forced                                   : No

Menu
00:00:00.000                             : :Chapter 1
00:05:00.000                             : :Chapter 2
00:10:00.000                             : :Chapter 3
00:15:00.000                             : :Chapter 4
00:20:00.000                             : :Chapter 5
00:25:00.000                             : :Chapter 6
00:30:00.000                             : :Chapter 7
00:35:00.000                             : :Chapter 8
00:40:00.000                             : :Chapter 9
00:45:00.000                             : :Chapter 10
00:50:00.000                             : :Chapter 11
00:55:00.000                             : :Chapter 12
01:00:00.000                             : :Chapter 13
01:05:00.000                             : :Chapter 14
01:10:00.000                             : :Chapter 15
01:15:00.000                             : :Chapter 16
01:20:00.000                             : :Chapter 17
01:25:00.000                             : :Chapter 18
01:30:00.000                             : :Chapter 19
01:35:00.000                             : :Chapter 20
01:40:00.000                             : :Chapter 21
01:45:00.000                             : :Chapter 22
01:50:00.000                             : :Chapter 23
01:55:00.000                             : :Chapter 24
02:00:00.000                             : :Chapter 25
02:05:00.000                             : :Chapter 26
02:10:00.000                             : :Chapter 27






























Files:

  • White House Down 2013 720p BluRay x264 Dual Audio [Hindi + Eng] DD 5.0 - MSubs ~ Ranvijay.mkv (3.4 GB)

There are currently no comments. Feel free to leave one :)

Code:

  • UDP://TRACKER.LEECHERS-PARADISE.ORG:6969/ANNOUNCE