S.W.A.T. S01E02 Cuchillo 1080p DD5.1 - 2.0 x264 Phun Psyz

  • Category TV
  • Type HD
  • Language English
  • Total size 885.7 MB
  • Uploaded By PhunPsyz
  • Downloads 3063
  • Last checked 5 days ago
  • Date uploaded 1 week ago
  • Seeders 55
  • Leechers 11

Infohash : 7B8B5CB518A82B202F1EBEA33BE333759921AF81

x265 Size, x264 Compatibility, HD Quality

http://www.imdb.com/title/tt7246820/?ref_=ttep_ep2

The team must find four escaped convicts before a rival team finds them; Hondo's leadership is called into question when Street flagrantly disregards protocol.

Source: NTb (2.65 GiB)





Format : MPEG-4
Format profile : Base Media / Version 2
Codec ID : mp42 (isom/iso2/avc1/mp41)
File size : 886 MiB
Duration : 43 min 41 s
Overall bit rate mode : Variable
Overall bit rate : 2 834 kb/s
Writing application : HandBrake 1.0.0 2016122400

Video
ID : 1
Format : AVC
Format/Info : Advanced Video Codec
Format profile : [email protected]
Format settings : CABAC / 8 Ref Frames
Format settings, CABAC : Yes
Format settings, RefFrames : 8 frames
Codec ID : avc1
Codec ID/Info : Advanced Video Coding
Duration : 43 min 41 s
Bit rate : 2 346 kb/s
Width : 1 920 pixels
Height : 1 080 pixels
Display aspect ratio : 16:9
Frame rate mode : Variable
Frame rate : 23.976 (24000/1001) FPS
Minimum frame rate : 23.974 FPS
Maximum frame rate : 23.981 FPS
Color space : YUV
Chroma subsampling : 4:2:0
Bit depth : 8 bits
Scan type : Progressive
Bits/(Pixel*Frame) : 0.047
Stream size : 733 MiB (83%)
Writing library : x264 core 148 r2708 86b7198
Color range : Limited
Color primaries : BT.709
Transfer characteristics : BT.709
Matrix coefficients : BT.709

Audio #1
ID : 2
Format : AC-3
Format/Info : Audio Coding 3
Format settings, Endianness : Big
Codec ID : ac-3
Duration : 43 min 41 s
Bit rate mode : Constant
Bit rate : 320 kb/s
Channel(s) : 6 channels
Channel positions : Front: L C R, Side: L R, LFE
Sampling rate : 48.0 kHz
Frame rate : 31.250 FPS (1536 SPF)
Bit depth : 16 bits
Compression mode : Lossy
Stream size : 100 MiB (11%)
Title : Surround / Surround
Language : English
Service kind : Complete Main
Default : Yes
Alternate group : 1
Fallback To : 3

Audio #2
ID : 3
Format : AAC
Format/Info : Advanced Audio Codec
Format profile : LC
Codec ID : mp4a-40-2
Duration : 43 min 41 s
Bit rate mode : Variable
Bit rate : 160 kb/s
Channel(s) : 2 channels
Channel positions : Front: L R
Sampling rate : 48.0 kHz
Frame rate : 46.875 FPS (1024 SPF)
Compression mode : Lossy
Stream size : 50.0 MiB (6%)
Title : Stereo / Stereo
Language : English
Default : Inherited From: 2
Alternate group : 1
Fallback From : 2

Text
ID : 4
Format : Timed Text
Muxing mode : sbtl
Codec ID : tx3g
Duration : 43 min 35 s
Bit rate mode : Variable
Bit rate : 94 b/s
Stream size : 30.1 KiB (0%)
Language : English
Default : Yes
Forced : No
Alternate group : 3

Files:

  • S.W.A.T. S01E02 Cuchillo 1080p DD5.1 - 2.0 x264 Phun Psyz.mp4 (885.7 MB)

Comments

Code:

  • udp://tracker.pirateparty.gr:6969/announce
  • udp://tracker.leechers-paradise.org:6969/announce
  • udp://tracker.internetwarriors.net:1337/announce
  • udp://inferno.demonoid.pw:3391/announce
  • udp://tracker.grepler.com:6969/announce
  • http://explodie.org:6969/announce
  • http://mgtracker.org:6969/announce
  • udp://tracker.coppersurfer.tk:6969/announce
  • udp://public.popcorn-tracker.org:6969/announce
  • udp://ipv4.tracker.harry.lu:80/announce
  • http://tracker.opentrackr.org/announce
  • udp://tracker.tiny-vps.com:6969/announce