Autohead 2016 Hindi 720p NF Untouched UNRATED WEB-HD x264 [Moviez...

  • Category Movies
  • Type Bollywood
  • Language Hindi
  • Total size 1.5 GB
  • Uploaded By moviezworldz
  • Downloads 1068
  • Last checked 6 days ago
  • Date uploaded 1 week ago
  • Seeders 25
  • Leechers 15

Autohead

HorrorThriller

A documentary crew starts to make a documentary about an Auto Rickshaw driver in Mumbai. As they dig deeper into his life they discover angst, sexual frustration and paranoia that leads to a terrible end.

Infohash : 1A282BD2EC60DCD02332DFA97F3140C038202F8A







General
Format : Matroska
Format version : Version 4 / Version 2
File size : 1.47 GiB
Duration : 1 h 37 min
Overall bit rate : 2 165 kb/s

Video
ID : 1
Format : AVC
Format/Info : Advanced Video Codec
Format profile : [email protected]
Format settings : CABAC / 4 Ref Frames
Format settings, CABAC : Yes
Format settings, RefFrames : 4 frames
Codec ID : V_MPEG4/ISO/AVC
Duration : 1 h 37 min
Bit rate : 2 000 kb/s
Width : 1 280 pixels
Height : 684 pixels
Display aspect ratio : 1.85:1
Frame rate mode : Constant
Frame rate : 24.000 FPS
Color space : YUV
Chroma subsampling : 4:2:0
Bit depth : 8 bits
Scan type : Progressive
Bits/(Pixel*Frame) : 0.095
Stream size : 1.33 GiB (91%)
Writing library : x264 core 148 r2643 5c65704
Default : Yes
Forced : No

Audio
ID : 2
Format : AAC
Format/Info : Advanced Audio Codec
Format profile : LC
Codec ID : A_AAC-2
Duration : 1 h 37 min
Bit rate : 196 kb/s
Channel(s) : 2 channels
Channel positions : Front: L R
Sampling rate : 44.1 kHz
Frame rate : 43.066 FPS (1024 SPF)
Compression mode : Lossy
Stream size : 136 MiB (9%)
Default : Yes
Forced : No











Files:

Autohead 2016 Hindi 720p NF Untouched UNRATED WEB-HD x264
  • Autohead 2016 Hindi 720p NF Untouched UNRATED WEB-HD x264.mkv (1.5 GB)

Comments

Code:

  • http://ipv4.tracker.harry.lu/announce
  • http://ipv4.tracker.harry.lu:80/announce
  • udp://tracker.leechers-paradise.org:6969/announce
  • udp://tracker.zer0day.to:1337/announce
  • udp://tracker.coppersurfer.tk:6969/announce
  • udp://tracker.pirateparty.gr:6969/announce
  • http://tracker.devil-torrents.pl:80/announce
  • http://tracker.devil-torrents.pl/announce
  • http://open.kickasstracker.com/announce
  • udp://p4p.arenabg.com:1337/announce
  • udp://9.rarbg.me:2770/announce
  • udp://9.rarbg.com:2740/announce
  • udp://9.rarbg.to:2750/announce
  • http://tracker.devil-torrents.pl/announce
  • http://163.172.180.68/announce