[REUP] Cars 2 2011 (1080p Bluray x265 HEVC 10bit AAC 7.1 Tigole) ...

  • Category Movies
  • Type HEVC/x265
  • Language English
  • Total size 3.9 GB
  • Uploaded By UTRplus
  • Downloads 157
  • Last checked 6 days ago
  • Date uploaded 1 week ago
  • Seeders 3
  • Leechers 2

Infohash : 7F8246B03431F2E4453431B1FCA96A2F99DDD131



Cars 2 2011 in 1080p, encoded with x265 in HEVC and AAC 7.1 English, with subtitles!
Encoded using the time consuming 2 pass, 10 bit color at 2750 kbps, from a Blu-ray source, for the highest quality possible.



Media Information

Code:

General
Format : Matroska
Format version : Version 4 / Version 2
File size : 2.43 GiB
Duration : 1 h 46 min
Overall bit rate : 3 272 kb/s
Movie name : Cars 2
Encoded date : UTC 2017-05-01 12:14:07
Writing application : mkvmerge v9.6.0 ('Slave To Your Mind') 64bit
Writing library : libebml v1.3.4 + libmatroska v1.4.5

Video
ID : 1
Format : HEVC
Format/Info : High Efficiency Video Coding
Format profile : Main [email protected]@Main
Codec ID : V_MPEGH/ISO/HEVC
Duration : 1 h 46 min
Bit rate : 2 744 kb/s
Width : 1 920 pixels
Height : 804 pixels
Display aspect ratio : 2.40:1
Frame rate mode : Constant
Frame rate : 23.976 (24000/1001) FPS
Color space : YUV
Chroma subsampling : 4:2:0
Bit depth : 10 bits
Bits/(Pixel*Frame) : 0.074
Stream size : 2.04 GiB (84%)
Writing library : x265 2.3+32-1ed218717877:[Windows][GCC 6.3.0][64 bit] 10bit
Encoding settings : cpuid=1173503 / frame-threads=3 / numa-pools=8 / wpp / no-pmode / no-pme / no-psnr / no-ssim / log-level=2 / input-csp=1 / input-res=1920x804 / interlace=0 / total-frames=152882 / level-idc=0 / high-tier=1 / uhd-bd=0 / ref=4 / no-allow-non-conformance / no-repeat-headers / annexb / no-aud / no-hrd / info / hash=0 / no-temporal-layers / open-gop / min-keyint=23 / keyint=250 / bframes=4 / b-adapt=2 / b-pyramid / bframe-bias=0 / rc-lookahead=25 / lookahead-slices=4 / scenecut=40 / no-intra-refresh / ctu=64 / min-cu-size=8 / rect / no-amp / max-tu-size=32 / tu-inter-depth=1 / tu-intra-depth=1 / limit-tu=0 / rdoq-level=2 / dynamic-rd=0.00 / no-ssim-rd / signhide / no-tskip / nr-intra=0 / nr-inter=0 / no-constrained-intra / strong-intra-smoothing / max-merge=3 / limit-refs=3 / limit-modes / me=3 / subme=3 / merange=57 / temporal-mvp / weightp / no-weightb / no-analyze-src-pics / deblock=0:0 / sao / no-sao-non-deblock / rd=4 / no-early-skip / rskip / no-fast-intra / no-tskip-fast / no-cu-lossless / no-b-intra / rdpenalty=0 / psy-rd=2.00 / psy-rdoq=1.00 / no-rd-refine / analysis-mode=0 / no-lossless / cbqpoffs=0 / crqpoffs=0 / rc=abr / bitrate=2744 / qcomp=0.60 / qpstep=4 / stats-write=0 / stats-read=2 / cplxblur=20.0 / qblur=0.5 / ipratio=1.40 / pbratio=1.30 / aq-mode=2 / aq-strength=1.00 / cutree / zone-count=0 / no-strict-cbr / qg-size=32 / no-rc-grain / qpmax=69 / qpmin=0 / sar=0 / overscan=0 / videoformat=5 / range=0 / colorprim=2 / transfer=2 / colormatrix=2 / chromaloc=0 / display-window=0 / max-cll=0,0 / min-luma=0 / max-luma=1023 / log2-max-poc-lsb=8 / vui-timing-info / vui-hrd-info / slices=1 / opt-qp-pps / opt-ref-list-length-pps / no-multi-pass-opt-rps / scenecut-bias=0.05 / no-opt-cu-delta-qp / no-aq-motion / no-hdr / no-hdr-opt / refine-level=5 / no-limit-sao
Default : Yes
Forced : No

Audio #1
ID : 2
Format : AAC
Format/Info : Advanced Audio Codec
Format profile : LC
Codec ID : A_AAC
Duration : 1 h 46 min
Bit rate : 417 kb/s
Channel(s) : 8 channels
Channel positions : Front: L C R, Side: 4, LFE
Sampling rate : 48.0 kHz
Frame rate : 46.875 FPS (1024 spf)
Compression mode : Lossy
Delay relative to video : 20 ms
Stream size : 317 MiB (13%)
Language : English
Default : Yes
Forced : No

Audio #2
ID : 3
Format : AAC
Format/Info : Advanced Audio Codec
Format profile : HE-AAC / LC
Codec ID : A_AAC
Duration : 1 h 46 min
Bit rate : 66.2 kb/s
Channel(s) : 2 channels
Channel positions : Front: L R
Sampling rate : 48.0 kHz / 24.0 kHz
Frame rate : 23.438 FPS (1024 spf)
Compression mode : Lossy
Delay relative to video : 40 ms
Stream size : 50.0 MiB (2%)
Title : Commentary
Language : English
Default : No
Forced : No

Text #1
ID : 4
Format : VobSub
Muxing mode : zlib
Codec ID : S_VOBSUB
Codec ID/Info : Picture based subtitle format used on DVDs
Duration : 1 h 37 min
Bit rate : 11.2 kb/s
Count of elements : 1668
Stream size : 7.82 MiB (0%)
Language : English
Default : No
Forced : No

Text #2
ID : 5
Format : VobSub
Muxing mode : zlib
Codec ID : S_VOBSUB
Codec ID/Info : Picture based subtitle format used on DVDs
Duration : 12 min 10 s
Bit rate : 55 b/s
Count of elements : 2
Stream size : 4.92 KiB (0%)
Title : Forced
Language : English
Default : No
Forced : Yes

Text #3
ID : 6
Format : VobSub
Muxing mode : zlib
Codec ID : S_VOBSUB
Codec ID/Info : Picture based subtitle format used on DVDs
Duration : 1 h 37 min
Bit rate : 10.5 kb/s
Count of elements : 1524
Stream size : 7.29 MiB (0%)
Language : German
Default : No
Forced : No

Text #4
ID : 7
Format : VobSub
Muxing mode : zlib
Codec ID : S_VOBSUB
Codec ID/Info : Picture based subtitle format used on DVDs
Duration : 1 h 41 min
Bit rate : 13.8 kb/s
Count of elements : 1855
Stream size : 10.1 MiB (0%)
Title : Commentary
Language : German
Default : No
Forced : No

Text #5
ID : 8
Format : VobSub
Muxing mode : zlib
Codec ID : S_VOBSUB
Codec ID/Info : Picture based subtitle format used on DVDs
Duration : 12 min 10 s
Bit rate : 72 b/s
Count of elements : 2
Stream size : 6.43 KiB (0%)
Title : Forced
Language : German
Default : No
Forced : No

Text #6
ID : 9
Format : VobSub
Muxing mode : zlib
Codec ID : S_VOBSUB
Codec ID/Info : Picture based subtitle format used on DVDs
Duration : 1 h 37 min
Bit rate : 8 956 b/s
Count of elements : 1505
Stream size : 6.24 MiB (0%)
Language : Turkish
Default : No
Forced : No

Menu
00:00:00.000 : en:Chapter 01
00:01:29.255 : en:Chapter 02
00:04:47.578 : en:Chapter 03
00:07:43.671 : en:Chapter 04
00:12:07.893 : en:Chapter 05
00:17:48.942 : en:Chapter 06
00:20:01.325 : en:Chapter 07
00:22:51.536 : en:Chapter 08
00:26:34.634 : en:Chapter 09
00:30:30.161 : en:Chapter 10
00:32:41.960 : en:Chapter 11
00:34:13.509 : en:Chapter 12
00:37:15.566 : en:Chapter 13
00:40:44.150 : en:Chapter 14
00:42:53.153 : en:Chapter 15
00:46:18.567 : en:Chapter 16
00:46:57.940 : en:Chapter 17
00:49:48.527 : en:Chapter 18
00:53:56.399 : en:Chapter 19
00:54:57.252 : en:Chapter 20
00:57:36.202 : en:Chapter 21
00:59:27.730 : en:Chapter 22
01:02:16.941 : en:Chapter 23
01:05:56.285 : en:Chapter 24
01:12:31.764 : en:Chapter 25
01:14:06.233 : en:Chapter 26
01:15:24.186 : en:Chapter 27
01:21:12.993 : en:Chapter 28
01:23:22.247 : en:Chapter 29
01:29:06.924 : en:Chapter 30
01:31:48.127 : en:Chapter 31
01:32:41.222 : en:Chapter 32
01:38:18.601 : en:Chapter 33


Source Information

Code:

Complete name : Cars_2_t03.mkv
File size : 27.7 GiB
Duration : 1 h 46 min
Overall bit rate mode : Variable
Overall bit rate : 37.3 Mb/s


Files:

Cars 2 2011 (1080p Bluray x265 HEVC 10bit AAC 7.1 Tigole)
  • Cars 2 2011 (1080p x265 10bit Tigole).mkv (2.4 GB)
  • Featurettes
    • Emeryville - Animation Pit Stop.mkv (35.6 MB)
    • Emeryville - He Lives! Making the Finn McMissile Toy.mkv (55.2 MB)
    • Emeryville - Motorama.mkv (94.1 MB)
    • Emeryville - Trailer 1.mkv (25.9 MB)
    • Emeryville - Trailer 2.mkv (14.5 MB)
    • London - Brawl at Big Bentley.mkv (67.2 MB)
    • London - Easter Egg.mkv (10.4 MB)
    • London - Spy Training.mkv (5.8 MB)
    • London - Spyified.mkv (76.9 MB)
    • Munich - Deleted Scene - Germany.mkv (19.3 MB)
    • Munich - Deleted Scene - Oktoberfest.mkv (51.9 MB)
    • Munich - Easter Egg.mkv (29.9 MB)
    • Paris - Deleted Scene - Paris Race.mkv (51.0 MB)
    • Paris - Spy Training.mkv (5.4 MB)
    • Paris - Streets of Paris.mkv (56.2 MB)
    • Porto Corsa - Easter Egg.mkv (12.1 MB)
    • Porto Corsa - Finding Porto Corsa.mkv (92.0 MB)
    • Porto Corsa - The Heart of Italy.mkv (52.6 MB)
    • Prague - Alternate Opening.mkv (34.6 MB)
    • Prague - Easter Egg.mkv (26.0 MB)
    • Radiator Springs - Deleted Scene - Tall Tale.mkv (43.2 MB)
    • Radiator Springs - The Origin of Cars 2.mkv (74.6 MB)
    • Short - Air Mater.mkv (68.6 MB)
    • Short - Hawaiian Vacation.mkv (67.7 MB)
    • TV Spot.mkv (5.3 MB)
    • The Nuts & Bolts of Cars Land.mkv (84.3 MB)
    • The Pacific - Easter Egg.mkv (22.2 MB)
    • The Pacific - Making Lemon-Aides.mkv (55.5 MB)
    • The Pacific - Somewhere in the Pacific.mkv (44.3 MB)
    • Tokyo - Easter Egg.mkv (8.4 MB)
    • Tokyo - Extended Scene - Tokyo Race.mkv (43.8 MB)
    • Tokyo - Many Nations, One Race.mkv (87.2 MB)
    • Tokyo - Mater Takes Tokyo.mkv (60.2 MB)
    • Tokyo - Spy Training.mkv (5.0 MB)

Comments

Code:

  • udp://tracker.torrent.eu.org:451/announce
  • udp://tracker.opentrackr.org:1337/announce
  • udp://tracker.coppersurfer.tk:6969/announce