Supernatural.S13E05.iNTERNAL.720p.WEB.x264-BAMBOOZLE

  • Category TV
  • Type HD
  • Language English
  • Total size 1.4 GB
  • Uploaded By showstopper
  • Downloads 8
  • Last checked 5 days ago
  • Date uploaded 1 week ago
  • Seeders 1
  • Leechers 4
90%
November 10, 2017, 2:00 am

Supernatural

While working on a case involving the ghost of a demented doctor, Sam and Dean get assistance from an unexpected source – Billie. Castiel finds his way back to the Winchesters.

Infohash : E8C229574ABDD28441B9046A6545322BB4F02544

Supernatural.S13E05.iNTERNAL.720p.WEB.x264-BAMBOOZLE



Complete name : supernatural.s13e05.internal.720p.web.x264-bamboozle.mkv
Format : Matroska
Format version : Version 4 / Version 2
File size : 1.44 GiB
Duration : 41 min 33 s
Overall bit rate : 4 970 kb/s
Encoded date : UTC 2017-11-10 06:26:04
Writing application : mkvmerge v8.8.0 ('Wind at my back') 64bit
Writing library : libebml v1.3.3 + libmatroska v1.4.4

Video
ID : 1
Format : AVC
Format/Info : Advanced Video Codec
Format profile : [email protected]
Format settings, CABAC : Yes
Format settings, ReFrames : 4 frames
Codec ID : V_MPEG4/ISO/AVC
Duration : 41 min 33 s
Bit rate : 4 995 kb/s
Width : 1 280 pixels
Height : 720 pixels
Display aspect ratio : 16:9
Frame rate mode : Constant
Frame rate : 23.976 (24000/1001) FPS
Color space : YUV
Chroma subsampling : 4:2:0
Bit depth : 8 bits
Scan type : Progressive
Bits/(Pixel*Frame) : 0.226
Stream size : 1.40 GiB (97%)
Writing library : x264 core 118
Encoding settings : cabac=1 / ref=3 / deblock=1:0:0 / analyse=0x1:0x111 / me=hex / subme=7 / psy=1 / psy_rd=1.00:0.00 / mixed_ref=1 / me_range=16 / chroma_me=1 / trellis=1 / 8x8dct=0 / cqm=0 / deadzone=21,11 / fast_pskip=1 / chroma_qp_offset=-2 / threads=1 / sliced_threads=0 / nr=0 / decimate=1 / interlaced=0 / bluray_compat=0 / constrained_intra=0 / bframes=3 / b_pyramid=2 / b_adapt=1 / b_bias=0 / direct=1 / weightb=1 / open_gop=0 / weightp=2 / keyint=90 / keyint_min=9 / scenecut=40 / intra_refresh=0 / rc_lookahead=40 / rc=2pass / mbtree=1 / bitrate=4995 / ratetol=1.0 / qcomp=0.60 / qpmin=0 / qpmax=69 / qpstep=4 / cplxblur=20.0 / qblur=0.5 / vbv_maxrate=4995 / vbv_bufsize=4995 / nal_hrd=none / ip_ratio=1.40 / aq=1:1.00
Default : Yes
Forced : No

Audio
ID : 2
Format : AAC
Format/Info : Advanced Audio Codec
Format profile : LC
Codec ID : A_AAC
Duration : 41 min 33 s
Bit rate : 128 kb/s
Channel(s) : 2 channels
Channel positions : Front: L R
Sampling rate : 44.1 kHz
Frame rate : 43.066 FPS (1024 spf)
Compression mode : Lossy
Stream size : 38.0 MiB (3%)
Language : English
Default : Yes
Forced : No






Click To View Screenshot

Click To View Screenshot

Click To View Screenshot

Files:

Supernatural.S13E05.iNTERNAL.720p.WEB.x264-BAMBOOZLE
  • supernatural.s13e05.internal.720p.web.x264-bamboozle.mkv (1.4 GB)
  • supernatural.s13e05.internal.720p.web.x264-bamboozle.nfo (0.1 KB)

There are currently no comments. Feel free to leave one :)

Code:

  • udp://tracker.coppersurfer.tk:6969/announce
  • udp://tracker.pirateparty.gr:6969/announce
  • udp://shadowshq.yi.org:6969/announce
  • udp://eddie4.nl:6969/announce
  • udp://tracker.leechers-paradise.org:6969/announce
  • udp://tracker.opentrackr.org:1337/announce
  • udp://p4p.arenabg.ch:1337/announce
  • udp://p4p.arenabg.com:1337/announce
  • udp://9.rarbg.me:2710/announce
  • udp://9.rarbg.to:2710/announce
  • udp://ipv4.tracker.harry.lu:80/announce
  • udp://tracker.grepler.com:6969/announce
  • udp://public.popcorn-tracker.org:6969/announce
  • udp://tracker.opentrackr.org:1337/announce
  • udp://tracker.zer0day.to:1337/announce