Red Riding Hood 2011 720p Esub BluRay Dual Audio English Hindi G...

  • Category Movies
  • Type Dubs/Dual Audio
  • Language English
  • Total size 750.8 MB
  • Uploaded By PENDUDESI
  • Downloads 2132
  • Last checked 6 days ago
  • Date uploaded 1 week ago
  • Seeders 33
  • Leechers 6

Red Riding Hood

Thriller

Valerie is in love with a brooding outsider, Peter, but her parents have arranged for her to marry the wealthy Henry. Unwilling to lose each other, Valerie and Peter plan to run away together when they learn that Valerie's older sister has been killed by a werewolf that prowls the dark forest surrounding their village. Hungry for revenge, the people call on famed werewolf hunter, Father Solomon, to help them kill the wolf. But Solomon's arrival brings unintended consequences as he warns that the wolf, who takes human form by day, could be any one of them.

Infohash : B95026105327B2D1FAE8F9927C2E97C9A50A0F26



Title: Red Riding Hood
Year: 2011
Runtime: 100 minutes
Votes: 96828
Rating: 5.4/10
Language: English
Country: USA, Canada
All Genres: Fantasy, Horror, Mystery, Romance, Thriller
Plot Outline: Set in a medieval village that is haunted by a werewolf, a young girl falls for an orphaned woodcutter, much to her family's displeasure.
Tagline: Believe the legend. Beware the wolf.
Director: Catherine Hardwicke
Writing By: David Leslie Johnson,
Produced By: Jennifer Davisson,Leonardo DiCaprio,Catherine Hardwicke,Michael Ireland,Alex Mace,Jim Rowe,Julie Yorn,
Music: Alex Heffes Brian Reitzell
Cast:
Amanda Seyfried as Valerie
Gary Oldman as Solomon
Billy Burke as Cesaire
Shiloh Fernandez as Peter
Max Irons as Henry
Virginia Madsen as Suzette
Lukas Haas as Father Auguste
Julie Christie as Grandmother
Shauna Kain as Roxanne
Michael Hogan as The Reeve

Format : Matroska

Format version : Version 4 / Version 2

File size : 751 MiB

Duration : 1 h 40 min

Overall bit rate : 1 044 kb/s

Movie name : Red Riding Hood 2011 GOPISAHI

Video

Format : AVC

Codec ID : V_MPEG4/ISO/AVC

Duration : 1 h 40 min

Bit rate : 874 kb/s

Width : 1 280 pixels

Height : 528 pixels

Display aspect ratio : 2.40:1

Frame rate mode : Constant

Frame rate : 23.976 (23976/1000) FPS

Stream size : 627 MiB (83%)

Writing library : x264 core 80 r1376M 3feaec2


Audio #1

Format : AAC

Duration : 1 h 40 min

Bit rate : 85.3 kb/s

Channel(s) : 6 channels

Channel positions : Front: L C R, Side: L R, LFE

Sampling rate : 44.1 kHz

Frame rate : 43.066 FPS (1024 SPF)

Stream size : 61.3 MiB (8%)

Language : English


Audio #2

Format : AAC

Duration : 1 h 35 min

Bit rate : 89.2 kb/s

Channel(s) : 6 channels

Channel positions : Front: L C R, Side: L R, LFE

Sampling rate : 44.1 kHz

Frame rate : 43.066 FPS (1024 SPF)

Stream size : 60.7 MiB (8%)

Language : Hindi


Text

Language : English


Files:

  • Red Riding Hood 2011 720p Esub BluRay Dual Audio English Hindi GOPISAHI.mkv (750.8 MB)

Comments

Code:

  • http://ipv4.tracker.harry.lu/announce
  • http://ipv4.tracker.harry.lu:80/announce
  • http://163.172.180.68:80/announce
  • http://t.nyaatracker.com/announce
  • http://tracker.devil-torrents.pl:80/announce
  • http://tracker.devil-torrents.pl/announce
  • http://open.kickasstracker.com/announce
  • http://163.172.180.68/announce
  • http://t.nyaatracker.com:80/announce
  • http://retracker.mgts.by:80/announce
  • http://45.33.11.224/announce
  • http://tracker.torrentyorg.pl:80/announce
  • http://pt.lax.mx:80/announce
  • udp://tracker.coppersurfer.tk:6969/announce
  • udp://tracker.pirateparty.gr:6969/announce