Drive Angry 2011 1080p BluRay [Hindi DD 5.1 - English DD 5.1 - Ta...

  • Category Movies
  • Type Dubs/Dual Audio
  • Language Hindi
  • Total size 2.3 GB
  • Uploaded By moviezworldz
  • Downloads 1417
  • Last checked 1 week ago
  • Date uploaded 1 week ago
  • Seeders 27
  • Leechers 31

Drive Angry

ActionCrimeFantasyThriller

Milton is a hardened felon who has broken out of Hell, intent on finding the vicious cult who brutally murdered his daughter and kidnapped her baby. He joins forces with Piper, a sexy, tough-as-nails waitress with a 69 Charger, who's also seeking redemption of her own. Caught in a deadly race against time, Milton has three days to avoid capture, avenge his daughter's death, and save her baby before she's mercilessly sacrificed by the cult.

Infohash : A87670A9C2995F96072122D00EBF9839C260D8C2






General
Format : Matroska
Format version : Version 4 / Version 2
File size : 2.29 GiB
Duration : 1 h 44 min
Overall bit rate : 3 141 kb/s

Video
ID : 1
Format : AVC
Format/Info : Advanced Video Codec
Format profile : [email protected]
Format settings : CABAC / 4 Ref Frames
Format settings, CABAC : Yes
Format settings, RefFrames : 4 frames
Codec ID : V_MPEG4/ISO/AVC
Duration : 1 h 44 min
Bit rate : 2 500 kb/s
Width : 1 920 pixels
Height : 1 080 pixels
Display aspect ratio : 16:9
Frame rate mode : Constant
Frame rate : 23.976 (23976/1000) FPS
Color space : YUV
Chroma subsampling : 4:2:0
Bit depth : 8 bits
Scan type : Progressive
Bits/(Pixel*Frame) : 0.050
Stream size : 1.82 GiB (80%)
Writing library : x264 core 148 r2638M 7599210
Default : Yes
Forced : No

Audio #1
ID : 2
Format : AC-3
Format/Info : Audio Coding 3
Format settings, Endianness : Big
Codec ID : A_AC3
Duration : 1 h 44 min
Bit rate mode : Constant
Bit rate : 224 kb/s
Channel(s) : 6 channels
Channel positions : Front: L C R, Side: L R, LFE
Sampling rate : 48.0 kHz
Frame rate : 31.250 FPS (1536 SPF)
Bit depth : 16 bits
Compression mode : Lossy
Delay relative to video : 2 s 0 ms
Stream size : 167 MiB (7%)
Language : Hindi
Service kind : Complete Main
Default : Yes
Forced : No

Audio #2
ID : 3
Format : AC-3
Format/Info : Audio Coding 3
Format settings, Endianness : Big
Codec ID : A_AC3
Duration : 1 h 44 min
Bit rate mode : Constant
Bit rate : 224 kb/s
Channel(s) : 6 channels
Channel positions : Front: L C R, Side: L R, LFE
Sampling rate : 48.0 kHz
Frame rate : 31.250 FPS (1536 SPF)
Bit depth : 16 bits
Compression mode : Lossy
Stream size : 168 MiB (7%)
Language : English
Service kind : Complete Main
Default : No
Forced : No

Audio #3
ID : 4
Format : AC-3
Format/Info : Audio Coding 3
Format settings, Endianness : Big
Codec ID : A_AC3
Duration : 1 h 44 min
Bit rate mode : Constant
Bit rate : 96.0 kb/s
Channel(s) : 2 channels
Channel positions : Front: L R
Sampling rate : 44.1 kHz
Frame rate : 28.711 FPS (1536 SPF)
Bit depth : 16 bits
Compression mode : Lossy
Stream size : 71.8 MiB (3%)
Language : Tamil
Service kind : Complete Main
Default : No
Forced : No

Audio #4
ID : 5
Format : AC-3
Format/Info : Audio Coding 3
Format settings, Endianness : Big
Codec ID : A_AC3
Duration : 1 h 44 min
Bit rate mode : Constant
Bit rate : 96.0 kb/s
Channel(s) : 2 channels
Channel positions : Front: L R
Sampling rate : 44.1 kHz
Frame rate : 28.711 FPS (1536 SPF)
Bit depth : 16 bits
Compression mode : Lossy
Stream size : 71.8 MiB (3%)
Language : Telugu
Service kind : Complete Main
Default : No
Forced : No

Text
ID : 6
Format : UTF-8
Codec ID : S_TEXT/UTF8
Codec ID/Info : UTF-8 Plain Text
Duration : 1 h 38 min
Bit rate : 46 b/s
Count of elements : 1083
Stream size : 33.3 KiB (0%)
Default : Yes
Forced : No













Files:

Drive Angry 2011 1080p BluRay [Hindi DD 5.1 - English DD 5.1 - Tamil 2.0 -Telugu 2.0] ESub
  • Drive Angry 2011 1080p BluRay [Hindi DD 5.1 - English DD 5.1 - Tamil 2.0 -Telugu 2.0] ESub.mkv (2.3 GB)

Comments

Code:

  • http://ipv4.tracker.harry.lu/announce
  • http://ipv4.tracker.harry.lu:80/announce
  • udp://tracker.leechers-paradise.org:6969/announce
  • udp://tracker.zer0day.to:1337/announce
  • udp://tracker.coppersurfer.tk:6969/announce
  • udp://tracker.pirateparty.gr:6969/announce
  • http://tracker.devil-torrents.pl:80/announce
  • http://tracker.devil-torrents.pl/announce
  • http://open.kickasstracker.com/announce
  • udp://p4p.arenabg.com:1337/announce
  • udp://9.rarbg.me:2770/announce
  • udp://9.rarbg.com:2740/announce
  • udp://9.rarbg.to:2750/announce
  • http://tracker.devil-torrents.pl/announce
  • http://163.172.180.68/announce