Spectre 2015 720p BluRay x264 Dual Audio [Hindi + Eng] DD 5.0 - ...

  • Category Movies
  • Type Dubs/Dual Audio
  • Language Hindi
  • Total size 2.3 GB
  • Uploaded By TheFighter
  • Downloads 623
  • Last checked 5 days ago
  • Date uploaded 1 week ago
  • Seeders 9
  • Leechers 7

SPECTRE

ActionAdventureCrime

A cryptic message from Bond’s past sends him on a trail to uncover a sinister organization. While M battles political forces to keep the secret service alive, Bond peels back the layers of deceit to reveal the terrible truth behind SPECTRE.

Infohash : F4FB1F5ADF45BD5140806C022B0067805B3EFB0A



Spectre 2015 720p BluRay x264 Dual Audio [Hindi  + Eng] DD 5.0 - Msubs ~ Ranvijay

Thanks To Rohit Sharma For Multi Audios

Like Our FilmyThugs Official Page

............................................................................................................................................................................
............................................................................................................................................................................




............................................................................................................................................................................
............................................................................................................................................................................
Format                                   : Matroska
Format version                           : Version 4 / Version 2
File size                                : 2.27 GiB
Duration                                 : 2 h 28 min
Overall bit rate                         : 2 196 kb/s
Movie name                               : Spectre 2015 720p BluRay x264 Dual Audio [Hindi  + Eng] DD 5.0 - Msubs ~ Ranvijay

Video
ID                                       : 1
Format                                   : AVC
Duration                                 : 2 h 28 min
Bit rate                                 : 1 500 kb/s
Width                                    : 1 280 pixels
Height                                   : 536 pixels
Display aspect ratio                     : 2.40:1
Frame rate mode                          : Constant
Frame rate                               : 23.976 (23976/1000) FPS
Color space                              : YUV
Chroma subsampling                       : 4:2:0
Bit depth                                : 8 bits
Scan type                                : Progressive
Bits/(Pixel*Frame)                       : 0.091
Stream size                              : 1.55 GiB (48%)
Title                                    : ~Ranvijay~
Default                                  : Yes
Forced                                   : No

Audio #1
ID                                       : 2
Format                                   : AC-3
Format/Info                              : Audio Coding 3
Codec ID                                 : A_AC3
Duration                                 : 2 h 28 min
Bit rate mode                            : Constant
Bit rate                                 : 448 kb/s
Channel(s)                               : 6 channels
Channel positions                        : Front: L C R, Side: L R, LFE
Sampling rate                            : 48.0 kHz
Frame rate                               : 31.250 FPS (1536 SPF)
Bit depth                                : 16 bits
Compression mode                         : Lossy
Stream size                              : 475 MiB (14%)
Title                                    : ~Ranvijay~
Language                                 : Hindi
Service kind                             : Complete Main
Default                                  : Yes
Forced                                   : No

Audio #2
ID                                       : 3
Format                                   : AAC
Format/Info                              : Advanced Audio Codec
Format profile                           : LC
Codec ID                                 : A_AAC-2
Duration                                 : 2 h 28 min
Bit rate                                 : 224 kb/s
Channel(s)                               : 6 channels
Channel positions                        : Front: L C R, Side: L R, LFE
Sampling rate                            : 48.0 kHz
Frame rate                               : 46.875 FPS (1024 SPF)
Compression mode                         : Lossy
Stream size                              : 237 MiB (7%)
Title                                    : ~Ranvijay~
Language                                 : English
Default                                  : No
Forced                                   : No


Text #1
ID                                       : 6
Format                                   : PGS
Muxing mode                              : zlib
Codec ID                                 : S_HDMV/PGS
Codec ID/Info                            : Picture based subtitle format used on BDs/HD-DVDs
Duration                                 : 2 h 27 min
Bit rate                                 : 17.7 kb/s
Count of elements                        : 2289
Stream size                              : 18.6 MiB (1%)
Title                                    : ~Ranvijay~
Language                                 : Hindi
Default                                  : No
Forced                                   : No

Text #2
ID                                       : 7
Format                                   : PGS
Muxing mode                              : zlib
Codec ID                                 : S_HDMV/PGS
Codec ID/Info                            : Picture based subtitle format used on BDs/HD-DVDs
Duration                                 : 2 h 16 min
Bit rate                                 : 21.5 kb/s
Count of elements                        : 2162
Stream size                              : 21.1 MiB (1%)
Title                                    : ~Ranvijay~
Language                                 : English
Default                                  : No
Forced                                   : No
............................................................................................................................................................................
............................................................................................................................................................................




............................................................................................................................................................................
............................................................................................................................................................................

























............................................................................................................................................................................
............................................................................................................................................................................


Files:

  • Spectre 2015 720p BluRay x264 Dual Audio [Hindi + Eng] DD 5.0 - Msubs ~ Ranvijay.mkv (2.3 GB)

Comments

Code:

  • UDP://TRACKER.LEECHERS-PARADISE.ORG:6969/ANNOUNCE