18+ Like Share Follow 2017 Movies HDRip x264 ESubs with Sample ☻r...

  • Category Movies
  • Type HD
  • Language English
  • Total size 707.9 MB
  • Uploaded By nehalpuja
  • Downloads 249
  • Last checked 1 week ago
  • Date uploaded 1 week ago
  • Seeders 12
  • Leechers 11

Infohash : 57310C6CE55135847F3A2B17C5312B859E44E462

18+ Like Share Follow 2017 Movies HDRip x264 ESubs with Sample ☻rDX☻
===============================================================================================

SCREEN SHOTS:



or

http://postimage.co.nr/2017/11/a/savings/1.html

File size : 694 MiB
Duration : 1 h 30 min
Overall bit rate : 1 078 kb/s
Movie name : 18+ Like Share Follow 2017 Movies HDRip x264 ESubs ☻rDX☻

Video
ID : 2
Format : MPEG-4 Visual
Format profile : Advanced [email protected]
Format settings, BVOP : 2
Format settings, QPel : No
Format settings, GMC : No warppoints
Format settings, Matrix : Default (H.263)
Muxing mode : Packed bitstream
Codec ID : V_MS/VFW/FOURCC / XVID
Codec ID/Hint : XviD
Duration : 1 h 30 min
Bit rate : 928 kb/s
Width : 640 pixels
Height : 352 pixels
Display aspect ratio : 16:9
Frame rate mode : Constant
Frame rate : 23.976 (24000/1001) FPS
Color space : YUV
Chroma subsampling : 4:2:0
Bit depth : 8 bits
Scan type : Progressive
Compression mode : Lossy
Bits/(Pixel*Frame) : 0.172
Stream size : 598 MiB (86%)
Title : ☻rDX☻
Writing library : XviD 65
Default : Yes
Forced : No

Audio
ID : 1
Format : MPEG Audio
Format version : Version 1
Format profile : Layer 3
Mode : Joint stereo
Codec ID : A_MPEG/L3
Codec ID/Hint : MP3
Duration : 1 h 30 min
Bit rate mode : Constant
Bit rate : 128 kb/s
Channel(s) : 2 channels
Sampling rate : 48.0 kHz
Compression mode : Lossy
Stream size : 82.4 MiB (12%)
Title : ☻rDX☻
Writing library : LAME3.99r
Encoding settings : -m j -V 4 -q 3 -lowpass 17 -b 128
Default : Yes
Forced : No

Text
ID : 3
Format : UTF-8
Codec ID : S_TEXT/UTF8
Codec ID/Info : UTF-8 Plain Text
Title : ☻rDX☻
Default : Yes
Forced : No



IMDB : http://www.imdb.com/title/tt7441032

Files:

18+ Like Share Follow 2017 Movies HDRip x264 ESubs with Sample ☻rDX☻
  • Sample ~ 18+ Like Share Follow 2017 Movies HDRip x264 ESubs ☻rDX☻.mkv (14.0 MB)
  • 18+ Like Share Follow 2017 Movies HDRip x264 ESubs ☻rDX☻.mkv (693.9 MB)

There are currently no comments. Feel free to leave one :)

Code:

  • udp://tracker.coppersurfer.tk:6969/announce
  • udp://tracker.openbittorrent.com:80/announce
  • udp://glotorrents.pw:6969/announce
  • udp://tracker.publicbt.com:80/announce
  • http://retracker.krs-ix.ru/announce
  • udp://tracker.pomf.se:80/announce
  • udp://explodie.org:6969/announce
  • http://mgtracker.org:2710/announce
  • http://tracker.aletorrenty.pl:2710/announce
  • http://tracker.btcake.com/announce
  • udp://tracker.openbittorrent.com:80/announce
  • udp://tracker.leechers-paradise.org:6969/announce
  • udp://coppersurfer.tk:6969/announce