Mr.Robot.S03E05.iNTERNAL.720p.WEB.h264-BAMBOOZLE

  • Category TV
  • Type HD
  • Language English
  • Total size 838.8 MB
  • Uploaded By showstopper
  • Downloads 19
  • Last checked 1 week ago
  • Date uploaded 1 week ago
  • Seeders 4
  • Leechers 3
100%
November 9, 2017, 4:00 am

Mr. Robot

E Corp is in chaos; Elliot is on the run; Darlene tries to help.

Infohash : B05EFF131126D8F5C5A24DD54C2D9D483185B727

Mr.Robot.S03E05.iNTERNAL.720p.WEB.h264-BAMBOOZLE



Complete name : mr.robot.s03e05.internal.720p.web.h264-bamboozle.mkv
Format : Matroska
Format version : Version 4 / Version 2
File size : 839 MiB
Duration : 44 min 56 s
Overall bit rate : 2 610 kb/s
Encoded date : UTC 2017-11-09 11:37:31
Writing application : mkvmerge v8.8.0 ('Wind at my back') 64bit
Writing library : libebml v1.3.3 + libmatroska v1.4.4

Video
ID : 1
Format : AVC
Format/Info : Advanced Video Codec
Format profile : [email protected]
Format settings, CABAC : Yes
Format settings, ReFrames : 1 frame
Format settings, GOP : M=1, N=48
Codec ID : V_MPEG4/ISO/AVC
Duration : 44 min 56 s
Bit rate : 2 512 kb/s
Width : 1 280 pixels
Height : 720 pixels
Display aspect ratio : 16:9
Frame rate mode : Constant
Frame rate : 23.976 (24000/1001) FPS
Color space : YUV
Chroma subsampling : 4:2:0
Bit depth : 8 bits
Scan type : Progressive
Bits/(Pixel*Frame) : 0.114
Stream size : 807 MiB (96%)
Default : Yes
Forced : No

Audio
ID : 2
Format : AAC
Format/Info : Advanced Audio Codec
Format profile : LC
Codec ID : A_AAC
Duration : 44 min 56 s
Bit rate : 96.0 kb/s
Channel(s) : 2 channels
Channel positions : Front: L R
Sampling rate : 44.1 kHz
Frame rate : 43.066 FPS (1024 spf)
Compression mode : Lossy
Stream size : 30.9 MiB (4%)
Default : Yes
Forced : No






Click To View Screenshot

Click To View Screenshot

Click To View Screenshot

Files:

Mr.Robot.S03E05.iNTERNAL.720p.WEB.h264-BAMBOOZLE
  • mr.robot.s03e05.internal.720p.web.h264-bamboozle.mkv (838.8 MB)
  • mr.robot.s03e05.internal.720p.web.x264-bamboozle.nfo (0.1 KB)

There are currently no comments. Feel free to leave one :)

Code:

  • udp://tracker.coppersurfer.tk:6969/announce
  • udp://tracker.pirateparty.gr:6969/announce
  • udp://shadowshq.yi.org:6969/announce
  • udp://eddie4.nl:6969/announce
  • udp://tracker.leechers-paradise.org:6969/announce
  • udp://tracker.opentrackr.org:1337/announce
  • udp://p4p.arenabg.ch:1337/announce
  • udp://p4p.arenabg.com:1337/announce
  • udp://9.rarbg.me:2710/announce
  • udp://9.rarbg.to:2710/announce
  • udp://ipv4.tracker.harry.lu:80/announce
  • udp://tracker.grepler.com:6969/announce
  • udp://public.popcorn-tracker.org:6969/announce
  • udp://tracker.opentrackr.org:1337/announce
  • udp://tracker.zer0day.to:1337/announce