Killjoys (2015) Season 3 S03 (1080p AMZN WEB-DL x265 HEVC 10bit A...

  • Category TV
  • Type HEVC/x265
  • Language English
  • Total size 5.7 GB
  • Uploaded By Vyndros
  • Downloads 49
  • Last checked 1 week ago
  • Date uploaded 1 week ago
  • Seeders 14
  • Leechers 11

Infohash : D6518EA289EFF79C3065D67379DB3A3E8C35712E










Media Information

Media Information

Code:

General
Format : Matroska
Format version : Version 4 / Version 2
File size : 642 MiB
Duration : 43 min 4 s
Overall bit rate : 2 085 kb/s
Encoded date : UTC 2017-08-02 18:12:38
Writing application : mkvmerge v14.0.0 ('Flow') 64bit
Writing library : libebml v1.3.4 + libmatroska v1.4.5

Video
ID : 1
Format : HEVC
Format/Info : High Efficiency Video Coding
Format profile : Main [email protected]@Main
Codec ID : V_MPEGH/ISO/HEVC
Duration : 43 min 4 s
Bit rate : 1 634 kb/s
Width : 1 920 pixels
Height : 1 080 pixels
Display aspect ratio : 16:9
Frame rate mode : Constant
Frame rate : 23.976 (24000/1001) FPS
Color space : YUV
Chroma subsampling : 4:2:0
Bit depth : 10 bits
Bits/(Pixel*Frame) : 0.033
Stream size : 503 MiB (78%)
Writing library : x265 2.5+2-18fa144d453e:[Windows][GCC 7.1.0][64 bit] 10bit
Encoding settings : cpuid=1173503 / frame-threads=2 / numa-pools=4 / wpp / no-pmode / no-pme / no-psnr / ssim / log-level=2 / input-csp=1 / input-res=1920x1080 / interlace=0 / total-frames=61960 / level-idc=0 / high-tier=1 / uhd-bd=0 / ref=3 / no-allow-non-conformance / no-repeat-headers / annexb / no-aud / no-hrd / info / hash=0 / no-temporal-layers / open-gop / min-keyint=23 / keyint=250 / bframes=8 / b-adapt=2 / b-pyramid / bframe-bias=0 / rc-lookahead=50 / lookahead-slices=6 / scenecut=40 / no-intra-refresh / ctu=64 / min-cu-size=8 / no-rect / no-amp / max-tu-size=32 / tu-inter-depth=1 / tu-intra-depth=1 / limit-tu=0 / rdoq-level=0 / dynamic-rd=0.00 / no-ssim-rd / signhide / no-tskip / nr-intra=0 / nr-inter=0 / no-constrained-intra / no-strong-intra-smoothing / max-merge=2 / limit-refs=3 / no-limit-modes / me=3 / subme=3 / merange=57 / temporal-mvp / weightp / no-weightb / no-analyze-src-pics / deblock=0:0 / sao / no-sao-non-deblock / rd=3 / no-early-skip / no-rskip / no-fast-intra / no-tskip-fast / no-cu-lossless / no-b-intra / rdpenalty=0 / psy-rd=1.00 / psy-rdoq=0.00 / no-rd-refine / analysis-reuse-mode=0 / no-lossless / cbqpoffs=0 / crqpoffs=0 / rc=crf / crf=22.0 / qcomp=0.60 / qpstep=4 / stats-write=0 / stats-read=0 / ipratio=1.40 / pbratio=1.30 / aq-mode=3 / aq-strength=0.60 / cutree / zone-count=0 / no-strict-cbr / qg-size=32 / no-rc-grain / qpmax=69 / qpmin=0 / no-const-vbv / sar=0 / overscan=0 / videoformat=5 / range=0 / colorprim=2 / transfer=2 / colormatrix=2 / chromaloc=0 / display-window=0 / max-cll=0,0 / min-luma=0 / max-luma=1023 / log2-max-poc-lsb=8 / vui-timing-info / vui-hrd-info / slices=1 / opt-qp-pps / opt-ref-list-length-pps / no-multi-pass-opt-rps / scenecut-bias=0.05 / no-opt-cu-delta-qp / no-aq-motion / no-hdr / no-hdr-opt / no-dhdr10-opt / analysis-reuse-level=5 / scale-factor=0 / refine-intra=0 / refine-inter=0 / refine-mv=0 / no-limit-sao / ctu-info=0
Default : Yes
Forced : No

Audio
ID : 2
Format : AAC
Format/Info : Advanced Audio Codec
Format profile : LC
Codec ID : A_AAC
Duration : 43 min 4 s
Bit rate : 449 kb/s
Channel(s) : 6 channels
Channel positions : Front: L C R, Side: L R, LFE
Sampling rate : 48.0 kHz
Frame rate : 46.875 FPS (1024 spf)
Compression mode : Lossy
Stream size : 138 MiB (22%)
Language : English
Default : No
Forced : No

Subtitle
ID : 3
Format : UTF-8
Codec ID : S_TEXT/UTF8
Codec ID/Info : UTF-8 Plain Text
Duration : 42 min 43 s
Bit rate : 89 b/s
Count of elements : 936
Stream size : 28.0 KiB (0%)
Default : Yes
Forced : No



Source Information

Code:

Release:
Amazon WEB-DL


Files:

Killjoys (2015) Season 3 S03 (1080p AMZN WEB-DL x265 HEVC 10bit AAC 5.1 Vyndros) [UTR]
  • Killjoys.S03E01.Boondoggie.1080p.10bit.AMZN.WEB-DL.AAC5.1.HEVC-Vyndros.mkv (596.8 MB)
  • Killjoys.S03E02.A.Skinner.Darkly.1080p.10bit.AMZN.WEB-DL.AAC5.1.HEVC-Vyndros.mkv (571.5 MB)
  • Killjoys.S03E03.The.Hullen.Have.Eyes.1080p.10bit.AMZN.WEB-DL.AAC5.1.HEVC-Vyndros.mkv (605.7 MB)
  • Killjoys.S03E04.The.Lion.the.Witch.and.the.Warlord.1080p.10bit.AMZN.WEB-DL.AAC5.1.HEVC-Vyndros.mkv (603.1 MB)
  • Killjoys.S03E05.Attack.the.Rack.1080p.10bit.AMZN.WEB-DL.AAC5.1.HEVC-Vyndros.mkv (642.5 MB)
  • Killjoys.S03E06.Necropolis.Now.1080p.10bit.AMZN.WEB-DL.AAC5.1.HEVC-Vyndros.mkv (554.7 MB)
  • Killjoys.S03E07.The.Wolf.You.Feed.1080p.10bit.AMZN.WEB-DL.AAC5.1.HEVC-Vyndros.mkv (515.6 MB)
  • Killjoys.S03E08.Heist.Heist.Baby.1080p.10bit.AMZN.WEB-DL.AAC5.1.HEVC-Vyndros.mkv (486.7 MB)
  • Killjoys.S03E09.Reckoning.Ball.1080p.10bit.AMZN.WEB-DL.AAC5.1.HEVC-Vyndros.mkv (539.6 MB)
  • Killjoys.S03E10.Wargasm.1080p.10bit.AMZN.WEB-DL.AAC5.1.HEVC-Vyndros.mkv (681.5 MB)

There are currently no comments. Feel free to leave one :)

Code:

  • udp://tracker.coppersurfer.tk:6969/announce
  • udp://tracker.zer0day.to:1337/announce
  • udp://tracker.opentrackr.org:1337/announce
  • udp://tracker.torrent.eu.org:451/announce
  • udp://tracker.ilibr.org:6969/announce
  • udp://tracker.leechers-paradise.org:6969/announce
  • udp://p4p.arenabg.com:1337/announce
  • udp://tracker.internetwarriors.net:1337/announce