Shooter (2016) Season 2 S02 (1080p AMZN WEB-DL x265 HEVC 10bit AA...

  • Category TV
  • Type HEVC/x265
  • Language English
  • Total size 5.1 GB
  • Uploaded By Vyndros
  • Downloads 63
  • Last checked 5 days ago
  • Date uploaded 1 week ago
  • Seeders 10
  • Leechers 7

Infohash : 427DF20ADFBEF10A71F1503F2D9676E915A7D074










Media Information

Media Information

Code:

General
Format : Matroska
Format version : Version 4 / Version 2
File size : 674 MiB
Duration : 42 min 3 s
Overall bit rate : 2 240 kb/s
Encoded date : UTC 2017-08-17 09:25:18
Writing application : mkvmerge v12.0.0 ('Trust / Lust') 64bit
Writing library : libebml v1.3.4 + libmatroska v1.4.5
Writing frontend : StaxRip 1.5.0.0

Video
ID : 1
Format : HEVC
Format/Info : High Efficiency Video Coding
Format profile : Main [email protected]@Main
Codec ID : V_MPEGH/ISO/HEVC
Duration : 42 min 3 s
Bit rate : 1 789 kb/s
Width : 1 920 pixels
Height : 1 080 pixels
Display aspect ratio : 16:9
Frame rate mode : Constant
Frame rate : 23.976 (24000/1001) FPS
Color space : YUV
Chroma subsampling : 4:2:0
Bit depth : 10 bits
Bits/(Pixel*Frame) : 0.036
Stream size : 538 MiB (80%)
Writing library : x265 2.5+9-fdf39a97ecb8:[Windows][GCC 7.2.0][64 bit] 10bit
Encoding settings : cpuid=1050111 / frame-threads=3 / numa-pools=8 / wpp / no-pmode / no-pme / no-psnr / ssim / log-level=2 / input-csp=1 / input-res=1920x1080 / interlace=0 / total-frames=60514 / level-idc=0 / high-tier=1 / uhd-bd=0 / ref=3 / no-allow-non-conformance / no-repeat-headers / annexb / no-aud / no-hrd / info / hash=0 / no-temporal-layers / open-gop / min-keyint=23 / keyint=250 / bframes=8 / b-adapt=2 / b-pyramid / bframe-bias=0 / rc-lookahead=50 / lookahead-slices=6 / scenecut=40 / no-intra-refresh / ctu=64 / min-cu-size=8 / no-rect / no-amp / max-tu-size=32 / tu-inter-depth=1 / tu-intra-depth=1 / limit-tu=0 / rdoq-level=0 / dynamic-rd=0.00 / no-ssim-rd / signhide / no-tskip / nr-intra=0 / nr-inter=0 / no-constrained-intra / no-strong-intra-smoothing / max-merge=3 / limit-refs=3 / no-limit-modes / me=3 / subme=3 / merange=57 / temporal-mvp / weightp / no-weightb / no-analyze-src-pics / deblock=0:0 / sao / no-sao-non-deblock / rd=3 / no-early-skip / no-rskip / no-fast-intra / no-tskip-fast / no-cu-lossless / no-b-intra / rdpenalty=0 / psy-rd=1.00 / psy-rdoq=0.00 / no-rd-refine / analysis-reuse-mode=0 / no-lossless / cbqpoffs=0 / crqpoffs=0 / rc=crf / crf=22.0 / qcomp=0.60 / qpstep=4 / stats-write=0 / stats-read=0 / ipratio=1.40 / pbratio=1.30 / aq-mode=3 / aq-strength=0.60 / cutree / zone-count=0 / no-strict-cbr / qg-size=32 / no-rc-grain / qpmax=69 / qpmin=0 / no-const-vbv / sar=0 / overscan=0 / videoformat=5 / range=0 / colorprim=2 / transfer=2 / colormatrix=2 / chromaloc=0 / display-window=0 / max-cll=0,0 / min-luma=0 / max-luma=1023 / log2-max-poc-lsb=8 / vui-timing-info / vui-hrd-info / slices=1 / opt-qp-pps / opt-ref-list-length-pps / no-multi-pass-opt-rps / scenecut-bias=0.05 / no-opt-cu-delta-qp / no-aq-motion / no-hdr / no-hdr-opt / no-dhdr10-opt / analysis-reuse-level=5 / scale-factor=0 / refine-intra=0 / refine-inter=0 / refine-mv=0 / no-limit-sao / ctu-info=0
Default : Yes
Forced : No

Audio
ID : 2
Format : AAC
Format/Info : Advanced Audio Codec
Format profile : LC
Codec ID : A_AAC
Duration : 42 min 3 s
Bit rate : 448 kb/s
Channel(s) : 6 channels
Channel positions : Front: L C R, Side: L R, LFE
Sampling rate : 48.0 kHz
Frame rate : 46.875 FPS (1024 spf)
Compression mode : Lossy
Stream size : 135 MiB (20%)
Language : English
Default : No
Forced : No

Subtitle
ID : 3
Format : UTF-8
Codec ID : S_TEXT/UTF8
Codec ID/Info : UTF-8 Plain Text
Duration : 41 min 22 s
Bit rate : 79 b/s
Count of elements : 907
Stream size : 24.2 KiB (0%)
Language : English
Default : No
Forced : No



Source Information

Code:

Release:
Amazon WEB-DL


Files:

Shooter (2016) Season 2 S02 (1080p AMZN WEB-DL x265 HEVC 10bit AAC 5.1 Vyndros) [UTR]
  • Shooter.S02E01.The.Hunting.Party.1080p.10bit.AMZN.WEB-DL.AAC5.1.HEVC-Vyndros.mkv (670.5 MB)
  • Shooter.S02E02.Remember.The.Alamo.1080p.10bit.AMZN.WEB-DL.AAC5.1.HEVC-Vyndros.mkv (721.1 MB)
  • Shooter.S02E03.Don't.Mess.with.Texas.1080p.10bit.AMZN.WEB-DL.AAC5.1.HEVC-Vyndros.mkv (511.8 MB)
  • Shooter.S02E04.The.Dark.End.of.the.Street.1080p.10bit.AMZN.WEB-DL.EAC36.0.HEVC-Vyndros.mkv (603.7 MB)
  • Shooter.S02E05.The.Man.Called.Noon.1080p.10bit.AMZN.WEB-DL.AAC5.1.HEVC-Vyndros.mkv (674.0 MB)
  • Shooter.S02E06.Across.the.Rio.Grande.1080p.10bit.AMZN.WEB-DL.AAC5.1.HEVC-Vyndros.mkv (729.2 MB)
  • Shooter.S02E07.Someplace.Like.Bolivia.1080p.10bit.AMZN.WEB-DL.AAC5.1.HEVC-Vyndros.mkv (710.1 MB)
  • Shooter.S02E08.That'll.Be.the.Day.1080p.10bit.AMZN.WEB-DL.AAC5.1.HEVC-Vyndros.mkv (554.1 MB)

There are currently no comments. Feel free to leave one :)

Code:

  • udp://tracker.coppersurfer.tk:6969/announce
  • udp://tracker.zer0day.to:1337/announce
  • udp://tracker.opentrackr.org:1337/announce
  • udp://tracker.torrent.eu.org:451/announce
  • udp://tracker.ilibr.org:6969/announce
  • udp://tracker.leechers-paradise.org:6969/announce
  • udp://p4p.arenabg.com:1337/announce
  • udp://tracker.internetwarriors.net:1337/announce