The.Blacklist.S05E07.iNTERNAL.720p.WEB.x264-BAMBOOZLE

  • Category TV
  • Type HD
  • Language English
  • Total size 820.0 MB
  • Uploaded By showstopper
  • Downloads 12
  • Last checked 1 week ago
  • Date uploaded 1 week ago
  • Seeders 6
  • Leechers 4
80%
November 9, 2017, 2:00 am

The Blacklist

Red and the Task Force place Dembe undercover to infiltrate an international human smuggling organization, but when communication is lost, they must intervene. Meanwhile, Tom's investigation into the suitcase lands him in grave danger.

Infohash : 17E334FA84B0343D4AAD6C2AF94ED2451CB5C03C

The.Blacklist.S05E07.iNTERNAL.720p.WEB.x264-BAMBOOZLE



Complete name : the.blacklist.s05e07.internal.720p.web.x264-bamboozle.mkv
Format : Matroska
Format version : Version 4 / Version 2
File size : 820 MiB
Duration : 43 min 13 s
Overall bit rate : 2 652 kb/s
Encoded date : UTC 2017-11-09 10:01:48
Writing application : mkvmerge v8.8.0 ('Wind at my back') 64bit
Writing library : libebml v1.3.3 + libmatroska v1.4.4

Video
ID : 1
Format : AVC
Format/Info : Advanced Video Codec
Format profile : [email protected]
Format settings, CABAC : Yes
Format settings, ReFrames : 1 frame
Format settings, GOP : M=1, N=48
Codec ID : V_MPEG4/ISO/AVC
Duration : 43 min 13 s
Bit rate : 2 560 kb/s
Width : 1 280 pixels
Height : 720 pixels
Display aspect ratio : 16:9
Frame rate mode : Constant
Frame rate : 23.976 (24000/1001) FPS
Color space : YUV
Chroma subsampling : 4:2:0
Bit depth : 8 bits
Scan type : Progressive
Bits/(Pixel*Frame) : 0.116
Stream size : 790 MiB (96%)
Writing library : x264 core 120
Encoding settings : cabac=1 / ref=1 / deblock=1:0:0 / analyse=0x1:0x111 / me=hex / subme=6 / psy=1 / psy_rd=1.00:0.00 / mixed_ref=0 / me_range=16 / chroma_me=0 / trellis=1 / 8x8dct=0 / cqm=0 / deadzone=21,11 / fast_pskip=1 / chroma_qp_offset=-2 / threads=8 / sliced_threads=0 / nr=0 / decimate=1 / interlaced=0 / bluray_compat=0 / constrained_intra=0 / bframes=0 / weightp=2 / keyint=48 / keyint_min=25 / scenecut=0 / intra_refresh=0 / rc=abr / mbtree=0 / bitrate=2560 / ratetol=1.0 / qcomp=0.60 / qpmin=10 / qpmax=51 / qpstep=4 / ip_ratio=1.40 / aq=1:1.00
Default : Yes
Forced : No

Audio
ID : 2
Format : AAC
Format/Info : Advanced Audio Codec
Format profile : LC
Codec ID : A_AAC
Duration : 43 min 13 s
Bit rate : 96.0 kb/s
Channel(s) : 2 channels
Channel positions : Front: L R
Sampling rate : 44.1 kHz
Frame rate : 43.066 FPS (1024 spf)
Compression mode : Lossy
Stream size : 29.7 MiB (4%)
Default : Yes
Forced : No






Click To View Screenshot

Click To View Screenshot

Click To View Screenshot

Files:

The.Blacklist.S05E07.iNTERNAL.720p.WEB.x264-BAMBOOZLE
  • the.blacklist.s05e07.internal.720p.web.x264-bamboozle.mkv (820.0 MB)
  • the.blacklist.s05e07.internal.720p.web.x264-bamboozle.nfo (0.1 KB)

There are currently no comments. Feel free to leave one :)

Code:

  • udp://tracker.coppersurfer.tk:6969/announce
  • udp://tracker.pirateparty.gr:6969/announce
  • udp://shadowshq.yi.org:6969/announce
  • udp://eddie4.nl:6969/announce
  • udp://tracker.leechers-paradise.org:6969/announce
  • udp://tracker.opentrackr.org:1337/announce
  • udp://p4p.arenabg.ch:1337/announce
  • udp://p4p.arenabg.com:1337/announce
  • udp://9.rarbg.me:2710/announce
  • udp://9.rarbg.to:2710/announce
  • udp://ipv4.tracker.harry.lu:80/announce
  • udp://tracker.grepler.com:6969/announce
  • udp://public.popcorn-tracker.org:6969/announce
  • udp://tracker.opentrackr.org:1337/announce
  • udp://tracker.zer0day.to:1337/announce