The Collection 2012 1080p BluRay Dual Audio [Hindi 5.1 + Eng 2.0]...

  • Category Movies
  • Type Dubs/Dual Audio
  • Language Hindi
  • Total size 1.5 GB
  • Uploaded By TheFighter
  • Downloads 1938
  • Last checked 1 week ago
  • Date uploaded 1 week ago
  • Seeders 10
  • Leechers 8

The Collection

HorrorThriller

Arkin escapes with his life from the vicious grips of "The Collector" during an entrapment party where he adds beautiful Elena to his "Collection." Instead of recovering from the trauma, Arkin is suddenly abducted from the hospital by mercenaries hired by Elena's wealthy father. Arkin is blackmailed to team up with the mercenaries and track down The Collector's booby trapped warehouse and save Elena.

Infohash : 557AE93400E1750EA8D7F9E907585933C90E316B



The Collection 2012 1080p BluRay Dual Audio [Hindi 5.1 + Eng 2.0] ~Ranvijay

Like Our FilmyThugs Official Page



Format                                   : Matroska
Format version                           : Version 4 / Version 2
File size                                : 1.54 GiB
Duration                                 : 1 h 21 min
Overall bit rate                         : 2 697 kb/s
Movie name                               : The Collection 2012 1080p BluRay Dual Audio [Hindi 5.1 + Eng 2.0] ~Ranvijay

Video
ID                                       : 1
Format                                   : AVC
Duration                                 : 1 h 18 min
Bit rate                                 : 2 172 kb/s
Width                                    : 1 920 pixels
Height                                   : 804 pixels
Display aspect ratio                     : 2.40:1
Frame rate mode                          : Constant
Frame rate                               : 25.000 FPS
Original frame rate                      : 24.000 FPS
Color space                              : YUV
Chroma subsampling                       : 4:2:0
Bit depth                                : 8 bits
Scan type                                : Progressive
Bits/(Pixel*Frame)                       : 0.056
Stream size                              : 1.24 GiB (80%)
Title                                    : ~Ranvijay~
Default                                  : Yes
Forced                                   : No

Audio #1
ID                                       : 2
Format                                   : AC-3
Format/Info                              : Audio Coding 3
Codec ID                                 : A_AC3
Duration                                 : 1 h 18 min
Bit rate mode                            : Constant
Bit rate                                 : 448 kb/s
Channel(s)                               : 6 channels
Channel positions                        : Front: L C R, Side: L R, LFE
Sampling rate                            : 48.0 kHz
Frame rate                               : 31.250 FPS (1536 SPF)
Bit depth                                : 16 bits
Compression mode                         : Lossy
Delay relative to video                  : 500 ms
Stream size                              : 251 MiB (16%)
Title                                    : DVD AUDIO DD5.1 ORG ~Ranvijay~
Language                                 : Hindi
Service kind                             : Complete Main
Default                                  : Yes
Forced                                   : No

Audio #2
ID                                       : 3
Format                                   : AAC
Format/Info                              : Advanced Audio Codec
Format profile                           : LC
Codec ID                                 : A_AAC-2
Duration                                 : 1 h 21 min
Bit rate                                 : 96.0 kb/s
Channel(s)                               : 2 channels
Channel positions                        : Front: L R
Sampling rate                            : 48.0 kHz
Frame rate                               : 46.875 FPS (1024 SPF)
Compression mode                         : Lossy
Stream size                              : 56.0 MiB (4%)
Title                                    : ~Ranvijay~
Language                                 : English
Default                                  : No
Forced                                   : No























Files:

  • The Collection 2012 1080p BluRay Dual Audio [Hindi 5.1 + Eng 2.0] ~Ranvijay.mkv (1.5 GB)

There are currently no comments. Feel free to leave one :)

Code:

  • UDP://TRACKER.LEECHERS-PARADISE.ORG:6969/ANNOUNCE