Killing Ground 2016 (1080p Bluray x265 HEVC 10bit AAC 5.1 Tigole)...

  • Category Movies
  • Type HEVC/x265
  • Language English
  • Total size 3.1 GB
  • Uploaded By UTRplus
  • Downloads 473
  • Last checked 1 week ago
  • Date uploaded 1 week ago
  • Seeders 16
  • Leechers 13

Killing Ground

ThrillerHorror

When young urbanites Ian and Sam decide to go camping, they arrive at their isolated destination to discover another tent already set up, but no sign of its owners. With the other campers at large, Ian and Sam's discovery of a child wandering alone sets off a terrifying chain of events that will push them to their limits – and beyond.

Infohash : 43474BEB6ABB3683C7F8EFE6B572003364AB258D



Killing Ground 2016 in 1080p, encoded with x265 in HEVC and AAC 5.1 English, with English and Spanish subtitles!
Encoded using the time consuming 2 pass, 10 bit color at 4500 kbps, from a Blu-ray source, for the highest quality possible.



Media Information

Code:

General
Format : Matroska
Format version : Version 4 / Version 2
File size : 3.04 GiB
Duration : 1 h 28 min
Overall bit rate : 4 913 kb/s
Movie name : Killing Ground
Encoded date : UTC 2017-11-02 12:15:16
Writing application : mkvmerge v14.0.0 ('Flow') 64bit
Writing library : libebml v1.3.4 + libmatroska v1.4.5

Video
ID : 1
Format : HEVC
Format/Info : High Efficiency Video Coding
Format profile : Main [email protected]@Main
Codec ID : V_MPEGH/ISO/HEVC
Duration : 1 h 28 min
Bit rate : 4 502 kb/s
Width : 1 920 pixels
Height : 808 pixels
Display aspect ratio : 2.40:1
Frame rate mode : Constant
Frame rate : 23.976 (24000/1001) FPS
Color space : YUV
Chroma subsampling : 4:2:0
Bit depth : 10 bits
Bits/(Pixel*Frame) : 0.121
Stream size : 2.79 GiB (92%)
Writing library : x265 2.5+22-8db95a1da9f8:[Windows][GCC 7.1.0][64 bit] 10bit
Encoding settings : cpuid=1173503 / frame-threads=3 / numa-pools=8 / wpp / no-pmode / no-pme / no-psnr / no-ssim / log-level=2 / input-csp=1 / input-res=1920x808 / interlace=0 / total-frames=127561 / level-idc=0 / high-tier=1 / uhd-bd=0 / ref=4 / no-allow-non-conformance / no-repeat-headers / annexb / no-aud / no-hrd / info / hash=0 / no-temporal-layers / open-gop / min-keyint=23 / keyint=250 / bframes=4 / b-adapt=2 / b-pyramid / bframe-bias=0 / rc-lookahead=25 / lookahead-slices=4 / scenecut=40 / no-intra-refresh / ctu=64 / min-cu-size=8 / rect / no-amp / max-tu-size=32 / tu-inter-depth=1 / tu-intra-depth=1 / limit-tu=0 / rdoq-level=2 / dynamic-rd=0.00 / no-ssim-rd / signhide / no-tskip / nr-intra=0 / nr-inter=0 / no-constrained-intra / strong-intra-smoothing / max-merge=3 / limit-refs=3 / limit-modes / me=3 / subme=3 / merange=57 / temporal-mvp / weightp / no-weightb / no-analyze-src-pics / deblock=0:0 / sao / no-sao-non-deblock / rd=4 / no-early-skip / rskip / no-fast-intra / no-tskip-fast / no-cu-lossless / no-b-intra / no-splitrd-skip / rdpenalty=0 / psy-rd=2.00 / psy-rdoq=1.00 / no-rd-refine / analysis-reuse-mode=0 / no-lossless / cbqpoffs=0 / crqpoffs=0 / rc=abr / bitrate=4500 / qcomp=0.60 / qpstep=4 / stats-write=0 / stats-read=2 / cplxblur=20.0 / qblur=0.5 / ipratio=1.40 / pbratio=1.30 / aq-mode=3 / aq-strength=1.00 / cutree / zone-count=0 / no-strict-cbr / qg-size=32 / no-rc-grain / qpmax=69 / qpmin=0 / no-const-vbv / sar=0 / overscan=0 / videoformat=5 / range=0 / colorprim=2 / transfer=2 / colormatrix=2 / chromaloc=0 / display-window=0 / max-cll=0,0 / min-luma=0 / max-luma=1023 / log2-max-poc-lsb=8 / vui-timing-info / vui-hrd-info / slices=1 / opt-qp-pps / opt-ref-list-length-pps / no-multi-pass-opt-rps / scenecut-bias=0.05 / no-opt-cu-delta-qp / no-aq-motion / no-hdr / no-hdr-opt / no-dhdr10-opt / analysis-reuse-level=5 / scale-factor=0 / refine-intra=0 / refine-inter=0 / refine-mv=0 / no-limit-sao / ctu-info=0
Default : Yes
Forced : No

Audio
ID : 2
Format : AAC
Format/Info : Advanced Audio Codec
Format profile : LC
Codec ID : A_AAC
Duration : 1 h 28 min
Bit rate : 403 kb/s
Channel(s) : 6 channels
Channel positions : Front: L C R, Side: L R, LFE
Sampling rate : 48.0 kHz
Frame rate : 46.875 FPS (1024 spf)
Compression mode : Lossy
Delay relative to video : 20 ms
Stream size : 255 MiB (8%)
Language : English
Default : Yes
Forced : No

Text #1
ID : 3
Format : VobSub
Muxing mode : zlib
Codec ID : S_VOBSUB
Codec ID/Info : Picture based subtitle format used on DVDs
Duration : 1 h 27 min
Bit rate : 5 653 b/s
Count of elements : 1155
Stream size : 3.56 MiB (0%)
Language : English
Default : No
Forced : No

Text #2
ID : 4
Format : VobSub
Muxing mode : zlib
Codec ID : S_VOBSUB
Codec ID/Info : Picture based subtitle format used on DVDs
Duration : 1 h 21 min
Bit rate : 5 419 b/s
Count of elements : 1077
Stream size : 3.16 MiB (0%)
Language : Spanish
Default : No
Forced : No

Menu
00:00:00.000 : en:Chapter 01
00:07:02.588 : en:Chapter 02
00:14:30.995 : en:Chapter 03
00:23:04.591 : en:Chapter 04
00:31:53.536 : en:Chapter 05
00:40:19.041 : en:Chapter 06
00:49:03.857 : en:Chapter 07
00:57:54.637 : en:Chapter 08
01:04:30.867 : en:Chapter 09
01:12:15.706 : en:Chapter 10
01:19:28.346 : en:Chapter 11
01:25:09.062 : en:Chapter 12
01:28:39.272 : en:Chapter 13


Source Information

Code:

Release : Killing.Ground.2016.1080p.BluRay.AVC.DTS-HD.MA.5.1-FGT
Complete name : Killing_Ground_t02.mkv
File size : 20.0 GiB
Duration : 1 h 28 min
Overall bit rate mode : Variable
Overall bit rate : 32.2 Mb/s


Files:

Killing Ground 2016 (1080p Bluray x265 HEVC 10bit AAC 5.1 Tigole) Featurettes
  • Trailer.mkv (21.0 MB)
  • Killing Ground 2016 (1080p x265 10bit Tigole).mkv (3.0 GB)

There are currently no comments. Feel free to leave one :)

Code:

  • udp://tracker.torrent.eu.org:451/announce
  • udp://tracker.opentrackr.org:1337/announce
  • udp://tracker.coppersurfer.tk:6969/announce