Birth of the Dragon 2017 720p WEB-DL X264 AC3 5.1-SeeHD

  • Category Movies
  • Type HD
  • Language English
  • Total size 3.0 GB
  • Uploaded By mazemaze16
  • Downloads 3199
  • Last checked 6 days ago
  • Date uploaded 1 week ago
  • Seeders 126
  • Leechers 18

Birth of the Dragon

ActionDrama

Set against the backdrop of San Francisco’s Chinatown, this cross-cultural biopic chronicles Bruce Lee’s emergence as a martial-arts superstar after his legendary secret showdown with fellow martial artist Wong Jack Man.

Infohash : 9573314533F0CD576CACD1929A4C55CC89A270B9





Format : Matroska
File size : 2.98 GiB
Duration : 1 h 35 min
Overall bit rate : 4 460 kb/s

Video
ID : 2
Format : AVC
Format/Info : Advanced Video Codec
Format profile : [email protected]
Format settings, CABAC : No
Format settings, ReFrames : 2 frames
Codec ID : V_MPEG4/ISO/AVC
Duration : 1 h 35 min
Bit rate : 4 074 kb/s
Width : 1 280 pixels
Height : 528 pixels
Display aspect ratio : 2.40:1
Frame rate mode : Constant
Frame rate : 23.976 FPS
Color space : YUV
Chroma subsampling : 4:2:0
Bit depth : 8 bits
Scan type : Progressive
Bits/(Pixel*Frame) : 0.251
Stream size : 2.72 GiB (91%)
Language : English
Default : Yes
Forced : No

Audio
ID : 1
Format : AC-3
Format/Info : Audio Coding 3
Mode extension : CM (complete main)
Format settings, Endianness : Big
Codec ID : A_AC3
Duration : 1 h 35 min
Bit rate mode : Constant
Bit rate : 384 kb/s
Channel(s) : 6 channels
Channel positions : Front: L C R, Side: L R, LFE
Sampling rate : 48.0 kHz
Frame rate : 31.250 FPS (1536 spf)
Bit depth : 16 bits
Compression mode : Lossy
Stream size : 263 MiB (9%)
Language : English
Default : Yes
Forced : No


Screens:



Files:

Birth of the Dragon 2017 720p WEB-DL X264 AC3 5.1-SeeHD [www.seehd.ws]
  • Birth of the Dragon 2017 720p WEB-DL X264 AC3 5.1-SeeHD [www.Seehd.ws].mkv (3.0 GB)
  • Code.txt (1.8 KB)
  • Subtitles
    • English.srt (83.0 KB)
  • www.SeeHD.ws.txt (0.0 KB)

There are currently no comments. Feel free to leave one :)

Code:

  • udp://tracker.ilibr.org:6969/announce
  • udp://9.rarbg.com:2710/announce
  • udp://9.rarbg.to:2710/announce
  • udp://tracker.leechers-paradise.org:6969/announce
  • udp://eddie4.nl:6969/announce
  • udp://ipv4.tracker.harry.lu:80/announce
  • udp://explodie.org:6969/announce
  • udp://p4p.arenabg.com:1337/announce
  • udp://p4p.arenabg.ch:1337/announce
  • udp://tracker.zer0day.to:1337/announce
  • udp://tracker.opentrackr.org:1337/announce
  • udp://tracker.ilibr.org:80/announce
  • udp://tracker.coppersurfer.tk:6969/announce
  • udp://tracker.coppersurfer.tk:6969
  • udp://9.rarbg.me:2710/announce