Metallica - The Black Album (1991) [FLAC, HQ tape]

  • Category Music
  • Type Lossless
  • Language English
  • Total size 389.5 MB
  • Uploaded By fast99
  • Downloads 164
  • Last checked 1 week ago
  • Date uploaded 2 weeks ago
  • Seeders 11
  • Leechers 4

Infohash : 0BD03D09B4F892AB99573424CC46791464880CA7

Audio path:
Aiwa AD-F770 (Dolby B) > Behringer UCA202 > arecord
Cut up with DarkAudacity.
No digital processing was performed.

This is a rip of the 1991 European chromium dioxide cassette tape (510-022-4, Holland).
The tape was in quite a good condition, though there are a few milliseconds long single-channel dropouts.
Main motivation to put this out was the tonality of this recording. It's preferable to the thin and harsh sounding digital releases.

----------------------------------------------------------------------------------------------
Album: Metallica
Artist: Metallica
----------------------------------------------------------------------------------------------
DR Peak RMS Duration Title [codec]
----------------------------------------------------------------------------------------------
DR9 -3.07 dB -15.28 dB 5:28 01 - Enter Sandman [flac]
DR10 -2.01 dB -14.88 dB 5:20 02 - Sad But True [flac]
DR10 -1.08 dB -13.69 dB 3:45 03 - Holier Than Thou [flac]
DR10 -3.00 dB -16.14 dB 6:23 04 - The Unforgiven [flac]
DR10 -2.35 dB -15.55 dB 6:40 05 - Wherever I May Roam [flac]
DR10 -2.16 dB -14.49 dB 4:00 06 - Don't Tread On Me [flac]
DR8 -3.82 dB -13.98 dB 4:00 07 - Through The Never [flac]
DR10 -4.44 dB -18.52 dB 6:24 08 - Nothing Else Matters [flac]
DR10 -4.05 dB -15.39 dB 4:12 09 - Of Wolf And Man [flac]
DR9 -4.10 dB -14.12 dB 5:04 10 - The God That Failed [flac]
DR9 -4.20 dB -15.47 dB 6:45 11 - My Friend Of Misery [flac]
DR10 -3.53 dB -15.22 dB 3:50 12 - The Struggle Within [flac]
----------------------------------------------------------------------------------------------
Number of files: 12
Official DR value: DR10

Sampling rate: 44100 Hz
Average bitrate: 883kbs
Bits per sample: 16 bit

Dr14 T.meter 1.0.16
==============================================================================================

Files:

Metallica - The Black Album (1991) [FLAC, HQ tape]
  • 05 - Wherever I May Roam.flac (42.0 MB)
  • 12 - The Struggle Within.flac (25.6 MB)
  • 11 - My Friend Of Misery.flac (41.6 MB)
  • 10 - The God That Failed.flac (33.2 MB)
  • 09 - Of Wolf And Man.flac (27.8 MB)
  • 08 - Nothing Else Matters.flac (36.1 MB)
  • 07 - Through The Never.flac (25.9 MB)
  • 06 - Don't Tread On Me.flac (25.8 MB)
  • info.txt (1.9 KB)
  • 04 - The Unforgiven.flac (38.2 MB)
  • 03 - Holier Than Thou.flac (24.6 MB)
  • 02 - Sad But True.flac (34.9 MB)
  • 01 - Enter Sandman.flac (33.8 MB)
  • folder.jpg (33.4 KB)

There are currently no comments. Feel free to leave one :)

Code:

  • udp://tracker.coppersurfer.tk:6969/announce
  • udp://eddie4.nl:6969/announce
  • http://nyaa.tracker.wf:7777/announce
  • udp://tracker.skyts.net:6969/announce
  • udp://tracker.safe.moe:6969/announce
  • udp://tracker.piratepublic.com:1337/announce
  • udp://tracker.pirateparty.gr:6969/announce
  • udp://tracker.leechers-paradise.org:6969/announce
  • udp://allesanddro.de:1337/announce
  • udp://9.rarbg.com:2710/announce
  • http://p4p.arenabg.com:1337/announce
  • udp://packages.crunchbangplusplus.org:6969/announce
  • udp://p4p.arenabg.com:1337/announce
  • http://tracker.opentrackr.org:1337/announce
  • udp://tracker.opentrackr.org:1337/announce
  • udp://public.popcorn-tracker.org:6969/announce
  • udp://tracker2.christianbro.pw:6969/announce
  • udp://tracker1.xku.tv:6969/announce
  • udp://tracker1.wasabii.com.tw:6969/announce
  • udp://tracker.zer0day.to:1337/announce
  • http://91.218.230.81:6969/announce
  • udp://peerfect.org:6969/announce