A.World.Without.Downs.Syndrome.2016.HDTV.h264.BBC

  • Category Documentaries
  • Type Documentary
  • Language English
  • Total size 701.6 MB
  • Uploaded By noriegaRJ
  • Downloads 218
  • Last checked 1 week ago
  • Date uploaded 1 week ago
  • Seeders 3
  • Leechers 0

Infohash : 4AAEDB79A8BC26B1B0215BA255CC78E22107581B

Release: A.World.Without.Downs.Syndrome.2016.HDTV.h264.BBC



IMDB: http://www.imdb.com/title/tt6129126/


Plot: Sally Phillips investigates the ethical implications of the Down's syndrome screening test.

General
Complete name : A.World.Without.Downs.Syndrome.2016.HDTV.h264.BBC.mp4
Format : MPEG-4
Format profile : Base Media
Codec ID : isom (isom/iso2/avc1/mp41)
File size : 702 MiB
Duration : 59 min 0 s
Overall bit rate : 1 662 kb/s
Writing application : Lavf57.25.100

Video
ID : 1
Format : AVC
Format/Info : Advanced Video Codec
Format profile : [email protected]
Format settings : CABAC / 4 Ref Frames
Format settings, CABAC : Yes
Format settings, RefFrames : 4 frames
Format settings, GOP : M=8, N=96
Codec ID : avc1
Codec ID/Info : Advanced Video Coding
Duration : 59 min 0 s
Bit rate : 1 527 kb/s
Width : 704 pixels
Height : 396 pixels
Display aspect ratio : 16:9
Frame rate mode : Variable
Frame rate : 49.892 FPS
Minimum frame rate : 0.130 FPS
Maximum frame rate : 90 000.000 FPS
Original frame rate : 50.000 FPS
Standard : Component
Color space : YUV
Chroma subsampling : 4:2:0
Bit depth : 8 bits
Scan type : Progressive
Bits/(Pixel*Frame) : 0.110
Stream size : 644 MiB (92%)
Color range : Limited
Color primaries : BT.709
Transfer characteristics : BT.709
Matrix coefficients : BT.709

Audio
ID : 2
Format : AAC
Format/Info : Advanced Audio Codec
Format profile : LC
Codec ID : mp4a-40-2
Duration : 58 min 59 s
Bit rate mode : Constant
Bit rate : 125 kb/s
Channel(s) : 2 channels
Channel positions : Front: L R
Sampling rate : 48.0 kHz
Frame rate : 46.875 FPS (1024 SPF)
Compression mode : Lossy
Stream size : 52.8 MiB (8%)
Language : English
Default : Yes
Alternate group : 1


SCREENSHOTS:









Files:

  • A.World.Without.Downs.Syndrome.2016.HDTV.h264.BBC.mp4 (701.6 MB)

There are currently no comments. Feel free to leave one :)

Code:

  • udp://tracker.openbittorrent.com:80/announce
  • udp://tracker.opentrackr.org:1337/announce