Jailbait.2014.720p.BluRay.x264-x0r

  • Category Movies
  • Type HD
  • Language English
  • Total size 1.9 GB
  • Uploaded By showstopper
  • Downloads 2421
  • Last checked 1 week ago
  • Date uploaded 1 week ago
  • Seeders 228
  • Leechers 72

Jailbait

CrimeDramaThriller

A gritty coming of age thriller about a young girl sent to juvenile prison for the murder of her abusive step father. The film follows Anna Nix's journey into the dark world of an all girls jail where she discovers complex relationships, drugs, mental illness and her eventual search for redemption.

Infohash : A45DC617A97860626BAAA0F41BCA72501C7561C9

Jailbait.2014.720p.BluRay.x264-x0r

ImDb: http://www.imdb.com/title/tt3290276



Complete name : Jailbait.2014.720p.BluRay.x264-x0r.mkv
Format : Matroska
Format version : Version 4 / Version 2
File size : 1.88 GiB
Duration : 1 h 29 min
Overall bit rate : 3 008 kb/s
Movie name : Jailbait.2014.720p.BluRay.x264-x0r
Encoded date : UTC 2017-11-05 17:40:41
Writing application : mkvmerge v7.7.0 ('Six Voices') 64bit built on Mar 1 2015 01:50:05
Writing library : libebml v1.3.1 + libmatroska v1.4.2

Video
ID : 1
Format : AVC
Format/Info : Advanced Video Codec
Format profile : [email protected]
Format settings, CABAC : Yes
Format settings, ReFrames : 9 frames
Codec ID : V_MPEG4/ISO/AVC
Duration : 1 h 29 min
Bit rate : 2 560 kb/s
Width : 1 280 pixels
Height : 720 pixels
Display aspect ratio : 16:9
Frame rate mode : Constant
Frame rate : 23.976 (24000/1001) FPS
Color space : YUV
Chroma subsampling : 4:2:0
Bit depth : 8 bits
Scan type : Progressive
Bits/(Pixel*Frame) : 0.116
Stream size : 1.60 GiB (85%)
Writing library : x264 core 130 r2273 b3065e6
Encoding settings : cabac=1 / ref=9 / deblock=1:-3:-3 / analyse=0x3:0x113 / me=umh / subme=9 / psy=1 / psy_rd=1.00:0.25 / mixed_ref=0 / me_range=32 / chroma_me=1 / trellis=2 / 8x8dct=1 / cqm=0 / deadzone=6,6 / fast_pskip=0 / chroma_qp_offset=-4 / threads=24 / lookahead_threads=2 / sliced_threads=0 / nr=0 / decimate=1 / interlaced=0 / bluray_compat=0 / constrained_intra=0 / bframes=5 / b_pyramid=2 / b_adapt=2 / b_bias=0 / direct=3 / weightb=1 / open_gop=0 / weightp=2 / keyint=240 / keyint_min=24 / scenecut=40 / intra_refresh=0 / rc_lookahead=60 / rc=2pass / mbtree=1 / bitrate=2560 / ratetol=1.0 / qcomp=0.00 / qpmin=0 / qpmax=69 / qpstep=4 / cplxblur=20.0 / qblur=0.5 / vbv_maxrate=20000 / vbv_bufsize=25000 / nal_hrd=none / ip_ratio=1.10 / aq=1:1.00
Language : English
Default : Yes
Forced : No
Color range : Limited
Color primaries : BT.709
Transfer characteristics : BT.709
Matrix coefficients : BT.709

Audio
ID : 2
Format : AC-3
Format/Info : Audio Coding 3
Format settings, Endianness : Big
Codec ID : A_AC3
Duration : 1 h 29 min
Bit rate mode : Constant
Bit rate : 448 kb/s
Channel(s) : 6 channels
Channel positions : Front: L C R, Side: L R, LFE
Sampling rate : 48.0 kHz
Frame rate : 31.250 FPS (1536 spf)
Bit depth : 16 bits
Compression mode : Lossy
Stream size : 287 MiB (15%)
Title : Surround
Language : English
Service kind : Complete Main
Default : Yes
Forced : No

Text
ID : 3
Format : UTF-8
Codec ID : S_TEXT/UTF8
Codec ID/Info : UTF-8 Plain Text
Duration : 1 h 24 min
Bit rate : 43 b/s
Count of elements : 1093
Stream size : 27.3 KiB (0%)
Language : English
Default : Yes
Forced : No

Menu
00:00:00.000 : en:Chapter 1
00:09:59.807 : en:Chapter 2
00:19:59.740 : en:Chapter 3
00:29:59.422 : en:Chapter 4
00:39:59.396 : en:Chapter 5
00:49:59.705 : en:Chapter 6
00:59:59.053 : en:Chapter 7
01:09:59.862 : en:Chapter 8
01:19:59.961 : en:Chapter 9






Click To View Screenshot

Click To View Screenshot

Click To View Screenshot

Files:

Jailbait.2014.720p.BluRay.x264-x0r
  • Jailbait.2014.720p.BluRay.x264-x0r.fanart.jpg (55.5 KB)
  • Jailbait.2014.720p.BluRay.x264-x0r.jpg (235.4 KB)
  • Jailbait.2014.720p.BluRay.x264-x0r.mkv (1.9 GB)
  • Jailbait.2014.720p.BluRay.x264-x0r.nfo (0.1 KB)

Comments

Code:

  • udp://tracker.coppersurfer.tk:6969/announce
  • udp://tracker.pirateparty.gr:6969/announce
  • udp://shadowshq.yi.org:6969/announce
  • udp://eddie4.nl:6969/announce
  • udp://tracker.leechers-paradise.org:6969/announce
  • udp://tracker.opentrackr.org:1337/announce
  • udp://p4p.arenabg.ch:1337/announce
  • udp://p4p.arenabg.com:1337/announce
  • udp://9.rarbg.me:2710/announce
  • udp://9.rarbg.to:2710/announce
  • udp://ipv4.tracker.harry.lu:80/announce
  • udp://tracker.grepler.com:6969/announce
  • udp://public.popcorn-tracker.org:6969/announce
  • udp://tracker.opentrackr.org:1337/announce
  • udp://tracker.zer0day.to:1337/announce