Thor Ragnarok 2017 NEW FULL HDCAM ENG X264-DADDY

  • Category Movies
  • Type Divx/Xvid
  • Language English
  • Total size 2.0 GB
  • Uploaded By mazemaze16
  • Downloads 2325
  • Last checked 1 week ago
  • Date uploaded 2 weeks ago
  • Seeders 87
  • Leechers 44

Thor: Ragnarok

ActionAdventureFantasyScience Fiction

Thor is imprisoned on the other side of the universe and finds himself in a race against time to get back to Asgard to stop Ragnarok, the destruction of his homeworld and the end of Asgardian civilization, at the hands of an all-powerful new threat, the ruthless Hela.

Infohash : 38EEE3F61A9B17A5657BF49F15A90CC7C5225BA7

[/center]



Thor Ragnarok 2017 NEW FULL HDCAM ENG X264-DADDY

Source: Multiple Sources
Sample: Yes 2 included
Language: English

Note: Full NEW Audio (combined 2 different sources) and Full Movie included End Credit Scene from youtube!
Now this is Good Early CAM, and best you guys gonna get Until TS or something Enjoy...

Format                      : Matroska
File size                   : 1.99 GiB
Duration                    : 2 h 1 min
Overall bit rate mode       : Variable
Overall bit rate            : 2 351 kb/s
Movie name                  : WwW.SeeHD.WS

Video
ID                          : 1
Format                      : AVC
Format/Info                 : Advanced Video Codec
Format profile              : [email protected]
Format settings, CABAC      : Yes
Format settings, ReFrames   : 6 frames
Codec ID                    : V_MPEG4/ISO/AVC
Duration                    : 2 h 1 min
Bit rate mode               : Variable
Bit rate                    : 2 100 kb/s
Maximum bit rate            : 62.5 Mb/s
Width                       : 720 pixels
Height                      : 352 pixels
Display aspect ratio        : 2.045
Frame rate mode             : Constant
Frame rate                  : 30.000 FPS
Color space                 : YUV
Chroma subsampling          : 4:2:0
Bit depth                   : 8 bits
Scan type                   : Progressive
Bits/(Pixel*Frame)          : 0.276
Stream size                 : 1.77 GiB (89%)

Audio
ID                          : 2
Format                      : AAC
Format/Info                 : Advanced Audio Codec
Format profile              : LC
Codec ID                    : A_AAC
Duration                    : 2 h 1 min
Bit rate                    : 254 kb/s
Channel(s)                  : 2 channels
Channel positions           : Front: L R
Sampling rate               : 44.1 kHz
Frame rate                  : 43.066 FPS (1024 spf)
Compression mode            : Lossy
Stream size                 : 220 MiB (11%)
Language                    : English
Default                     : Yes
Forced                      : No

Screen-Shots:





[center]

Files:

Thor Ragnarok 2017 NEW FULL HDCAM ENG X264-DADDY
  • Code.txt (2.5 KB)
  • Thor Ragnarok 2017 NEW FULL HDCAM ENG X264-DADDY (Sample 1).mkv (22.8 MB)
  • Thor Ragnarok 2017 NEW FULL HDCAM ENG X264-DADDY (Sample 2).mkv (20.0 MB)
  • Thor Ragnarok 2017 NEW FULL HDCAM ENG X264-DADDY.mkv (2.0 GB)

Comments

Code:

  • udp://tracker.ilibr.org:6969/announce
  • udp://9.rarbg.com:2710/announce
  • udp://9.rarbg.to:2710/announce
  • udp://tracker.leechers-paradise.org:6969/announce
  • udp://eddie4.nl:6969/announce
  • udp://ipv4.tracker.harry.lu:80/announce
  • udp://explodie.org:6969/announce
  • udp://p4p.arenabg.com:1337/announce
  • udp://p4p.arenabg.ch:1337/announce
  • udp://tracker.zer0day.to:1337/announce
  • udp://tracker.opentrackr.org:1337/announce
  • udp://tracker.ilibr.org:80/announce
  • udp://tracker.coppersurfer.tk:6969/announce
  • udp://tracker.coppersurfer.tk:6969
  • udp://9.rarbg.me:2710/announce