Do Lafzon Ki Kahani 2016 720p HDRip x264 AAC - ExtraMovies

  • Category Movies
  • Type HD
  • Language Hindi
  • Total size 987.8 MB
  • Uploaded By ExtraMovies
  • Downloads 529
  • Last checked 2 weeks ago
  • Date uploaded 3 weeks ago
  • Seeders 1
  • Leechers 0

Do Lafzon Ki Kahani

ActionDramaRomance

Centered on ex-mixed martial arts artist Sooraj and sculptor artist Jenny (Kajal Aggarwal). Their fate intertwines when their past are revealed in their blooming relationship.

Infohash : E0DDC6C6DA356AB184D523EC21A0BCF20A354161


Movie Info

General
Unique ID : 183888026241637546940507175084522967539 (0x8A578BAD71CCF93A8ACCA247595B91F3)
Complete name : Do Lafzon Ki Kahani 2016 720p HDRip x264 AAC - ExtraMovies.mkv
Format : Matroska
Format version : Version 4 / Version 2
File size : 988 MiB
Duration : 2 h 2 min
Overall bit rate : 1 128 kb/s
Movie name : ExtraMovies.cc - Do Lafzon Ki Kahani 2016 720p HDRip x264 AAC
Encoded date : UTC 2017-10-30 07:26:16
Writing application : mkvmerge v17.0.0 ('Be Ur Friend') 64-bit
Writing library : libebml v1.3.5 + libmatroska v1.4.8

Video
ID : 1
Format : AVC
Format/Info : Advanced Video Codec
Format profile : [email protected]
Format settings : CABAC / 8 Ref Frames
Format settings, CABAC : Yes
Format settings, RefFrames : 8 frames
Codec ID : V_MPEG4/ISO/AVC
Duration : 2 h 2 min
Bit rate : 999 kb/s
Width : 1 280 pixels
Height : 544 pixels
Display aspect ratio : 2.35:1
Frame rate mode : Variable
Frame rate : 23.976 (24000/1001) FPS
Color space : YUV
Chroma subsampling : 4:2:0
Bit depth : 8 bits
Scan type : Progressive
Bits/(Pixel*Frame) : 0.060
Stream size : 874 MiB (88%)
Title : ExtraMovies.cc
Writing library : x264 core 142 r2479 dd79a61
Encoding settings : cabac=1 / ref=8 / deblock=1:0:0 / analyse=0x3:0x113 / me=umh / subme=9 / psy=1 / psy_rd=1.00:0.00 / mixed_ref=1 / me_range=16 / chroma_me=1 / trellis=2 / 8x8dct=1 / cqm=0 / deadzone=21,11 / fast_pskip=1 / chroma_qp_offset=-2 / threads=12 / lookahead_threads=1 / sliced_threads=0 / nr=0 / decimate=1 / interlaced=0 / bluray_compat=0 / constrained_intra=0 / bframes=3 / b_pyramid=2 / b_adapt=2 / b_bias=0 / direct=3 / weightb=1 / open_gop=0 / weightp=2 / keyint=240 / keyint_min=24 / scenecut=40 / intra_refresh=0 / rc_lookahead=40 / rc=2pass / mbtree=1 / bitrate=999 / ratetol=1.0 / qcomp=0.60 / qpmin=0 / qpmax=69 / qpstep=4 / cplxblur=20.0 / qblur=0.5 / vbv_maxrate=62500 / vbv_bufsize=78125 / nal_hrd=none / filler=0 / ip_ratio=1.40 / aq=1:1.00
Default : Yes
Forced : No
Color range : Limited
Color primaries : BT.709
Transfer characteristics : BT.709
Matrix coefficients : BT.601

Audio
ID : 2
Format : AAC
Format/Info : Advanced Audio Codec
Format profile : HE-AAC / LC
Format settings : NBC
Codec ID : A_AAC-5
Duration : 2 h 2 min
Bit rate : 128 kb/s
Channel(s) : 2 channels
Channel positions : Front: L R
Sampling rate : 44.1 kHz / 22.05 kHz
Frame rate : 21.533 FPS (1024 SPF)
Compression mode : Lossy
Delay relative to video : -115 ms
Stream size : 112 MiB (11%)
Title : ExtraMovies.cc
Language : Hindi
Default : Yes
Forced : No












Give Proper Credits Where ever You Share


Files:

Do Lafzon Ki Kahani 2016 720p HDRip x264 AAC - ExtraMovies
  • Do Lafzon Ki Kahani 2016 720p HDRip x264 AAC - ExtraMovies.mkv (987.8 MB)
  • ExtraMovies.cc.txt (0.0 KB)

Comments

Code:

  • udp://tracker.leechers-paradise.org:6969/announce