Do Lafzon Ki Kahani 2016 1080p HDRip x264 AAC - ExtraMovies

  • Category Movies
  • Type HD
  • Language Hindi
  • Total size 8.7 GB
  • Uploaded By ExtraMovies
  • Downloads 88
  • Last checked 2 weeks ago
  • Date uploaded 3 weeks ago
  • Seeders 1
  • Leechers 3

Do Lafzon Ki Kahani

ActionDramaRomance

Centered on ex-mixed martial arts artist Sooraj and sculptor artist Jenny (Kajal Aggarwal). Their fate intertwines when their past are revealed in their blooming relationship.

Infohash : D98446FFE51A8ABDCA6C7CC1F4EF05593400614D


Movie Info

General
Unique ID : 216725366406048038410746047617042354109 (0xA30BC98BA38E2EB0AA31E053A13E0FBD)
Complete name : Do Lafzon Ki Kahani 2016 1080p HDRip x264 AAC - ExtraMovies.mkv
Format : Matroska
Format version : Version 4 / Version 2
File size : 8.73 GiB
Duration : 2 h 2 min
Overall bit rate : 10.2 Mb/s
Movie name : ExtraMovies.cc - Do Lafzon Ki Kahani 2016 1080p HDRip x264 AAC
Encoded date : UTC 2017-10-30 04:22:50
Writing application : mkvmerge v15.0.0 ('Duel with the Devil') 64-bit
Writing library : libebml v1.3.5 + libmatroska v1.4.5

Video
ID : 1
Format : AVC
Format/Info : Advanced Video Codec
Format profile : [email protected]
Format settings : CABAC / 2 Ref Frames
Format settings, CABAC : Yes
Format settings, RefFrames : 2 frames
Codec ID : V_MPEG4/ISO/AVC
Duration : 2 h 2 min
Bit rate : 10.1 Mb/s
Width : 1 920 pixels
Height : 1 080 pixels
Display aspect ratio : 16:9
Frame rate mode : Constant
Frame rate : 30.000 FPS
Color space : YUV
Chroma subsampling : 4:2:0
Bit depth : 8 bits
Scan type : Progressive
Bits/(Pixel*Frame) : 0.162
Stream size : 8.61 GiB (99%)
Title : ExtraMovies.cc
Default : Yes
Forced : No
Color range : Limited
Matrix coefficients : BT.470 System B, BT.470 System G

Audio
ID : 2
Format : AAC
Format/Info : Advanced Audio Codec
Format profile : LC
Codec ID : A_AAC-2
Duration : 2 h 2 min
Bit rate : 132 kb/s
Channel(s) : 2 channels
Channel positions : Front: L R
Sampling rate : 44.1 kHz
Frame rate : 43.066 FPS (1024 SPF)
Compression mode : Lossy
Delay relative to video : -33 ms
Stream size : 115 MiB (1%)
Title : ExtraMovies.cc
Language : Hindi
Default : Yes
Forced : No












Give Proper Credits Where ever You Share


Files:

Do Lafzon Ki Kahani 2016 1080p HDRip x264 AAC - ExtraMovies
  • Do Lafzon Ki Kahani 2016 1080p HDRip x264 AAC - ExtraMovies.mkv (8.7 GB)
  • ExtraMovies.cc.txt (0.0 KB)
  • Sample.mkv (4.1 MB)

There are currently no comments. Feel free to leave one :)

Code:

  • udp://tracker.leechers-paradise.org:6969/announce