Spider-Man Homecoming 2017 Dual Audio [Hindi(DTHRip Audio)] 720p ...

  • Category Movies
  • Type Dubs/Dual Audio
  • Language Hindi
  • Total size 1.1 GB
  • Uploaded By ExtraMovies
  • Downloads 1789
  • Last checked 2 weeks ago
  • Date uploaded 2 weeks ago
  • Seeders 9
  • Leechers 4

Spider-Man: Homecoming

ActionAdventureScience Fiction

Following the events of Captain America: Civil War, Peter Parker, with the help of his mentor Tony Stark, tries to balance his life as an ordinary high school student in Queens, New York City, with fighting crime as his superhero alter ego Spider-Man as a new threat, the Vulture, emerges.

Infohash : FD5EAFE96A6CD355363AD03C48043230026CFCCD


Movie Info

General
Unique ID : 195495823405527583150802601679349879702 (0x931320437F6ED4C1910DFFFEE3C01396)
Complete name : Spider-Man Homecoming 2017 Dual Audio [Hindi(DTHRip Audio)] 720p BluRay x264 ESubs - ExtraMovies.mkv
Format : Matroska
Format version : Version 4 / Version 2
File size : 1.14 GiB
Duration : 2 h 13 min
Overall bit rate : 1 225 kb/s
Movie name : ExtraMovies.cc - Spider-Man Homecoming 2017 720p BRRip Dual Audio Hindi(DTH Audio)+Eng x264 AAC ESubs
Encoded date : UTC 2017-10-30 04:44:28
Writing application : mkvmerge v17.0.0 ('Be Ur Friend') 64-bit
Writing library : libebml v1.3.5 + libmatroska v1.4.8

Video
ID : 1
Format : AVC
Format/Info : Advanced Video Codec
Format profile : [email protected]
Format settings : CABAC / 8 Ref Frames
Format settings, CABAC : Yes
Format settings, RefFrames : 8 frames
Codec ID : V_MPEG4/ISO/AVC
Duration : 2 h 13 min
Bit rate : 999 kb/s
Width : 1 280 pixels
Height : 544 pixels
Display aspect ratio : 2.35:1
Frame rate mode : Constant
Frame rate : 23.976 (23976/1000) FPS
Color space : YUV
Chroma subsampling : 4:2:0
Bit depth : 8 bits
Scan type : Progressive
Bits/(Pixel*Frame) : 0.060
Stream size : 953 MiB (81%)
Title : ExtraMovies.cc
Writing library : x264 core 142 r2479 dd79a61
Encoding settings : cabac=1 / ref=8 / deblock=1:0:0 / analyse=0x3:0x113 / me=umh / subme=9 / psy=1 / psy_rd=1.00:0.00 / mixed_ref=1 / me_range=16 / chroma_me=1 / trellis=2 / 8x8dct=1 / cqm=0 / deadzone=21,11 / fast_pskip=1 / chroma_qp_offset=-2 / threads=12 / lookahead_threads=1 / sliced_threads=0 / nr=0 / decimate=1 / interlaced=0 / bluray_compat=0 / constrained_intra=0 / bframes=3 / b_pyramid=2 / b_adapt=2 / b_bias=0 / direct=3 / weightb=1 / open_gop=0 / weightp=2 / keyint=240 / keyint_min=24 / scenecut=40 / intra_refresh=0 / rc_lookahead=40 / rc=2pass / mbtree=1 / bitrate=999 / ratetol=1.0 / qcomp=0.60 / qpmin=0 / qpmax=69 / qpstep=4 / cplxblur=20.0 / qblur=0.5 / vbv_maxrate=62500 / vbv_bufsize=78125 / nal_hrd=none / filler=0 / ip_ratio=1.40 / aq=1:1.00
Default : Yes
Forced : No
Color range : Limited
Color primaries : BT.709
Transfer characteristics : BT.709
Matrix coefficients : BT.709

Audio #1
ID : 2
Format : AAC
Format/Info : Advanced Audio Codec
Format profile : LC
Codec ID : A_AAC-2
Duration : 2 h 13 min
Bit rate : 128 kb/s
Channel(s) : 6 channels
Channel positions : Front: L C R, Side: L R, LFE
Sampling rate : 44.1 kHz
Frame rate : 43.066 FPS (1024 SPF)
Compression mode : Lossy
Delay relative to video : -146 ms
Stream size : 122 MiB (10%)
Title : ExtraMovies.cc
Language : Hindi
Default : Yes
Forced : No

Audio #2
ID : 3
Format : AAC
Format/Info : Advanced Audio Codec
Format profile : HE-AAC / LC
Format settings : NBC
Codec ID : A_AAC-5
Duration : 2 h 13 min
Bit rate : 96.0 kb/s
Channel(s) : 6 channels
Channel positions : Front: L C R, Side: L R, LFE
Sampling rate : 48.0 kHz / 24.0 kHz
Frame rate : 23.438 FPS (1024 SPF)
Compression mode : Lossy
Delay relative to video : -105 ms
Stream size : 91.6 MiB (8%)
Title : ExtraMovies.cc
Language : English
Default : No
Forced : No

Text
ID : 4
Format : UTF-8
Codec ID : S_TEXT/UTF8
Codec ID/Info : UTF-8 Plain Text
Duration : 2 h 12 min
Bit rate : 92 b/s
Count of elements : 2211
Stream size : 90.3 KiB (0%)
Title : ExtraMovies.cc
Language : English
Default : Yes
Forced : No












Note* Hindi Audio Is Taken Form TataSky
Hindi Audio Source - Tamilmv Thnx


Files:

Spider-Man Homecoming 2017 Dual Audio [Hindi(DTHRip Audio)] 720p BluRay x264 ESubs - ExtraMovies
  • Spider-Man Homecoming 2017 Dual Audio [Hindi(DTHRip Audio)] 720p BluRay x264 ESubs - ExtraMovies.mkv (1.1 GB)
  • ExtraMovies.cc.txt (0.0 KB)

Comments

Code:

  • udp://tracker.leechers-paradise.org:6969/announce