Transformers The Last Knight 2017 Dual Audio [Hindi DD5.1-English...

  • Category Movies
  • Type Dubs/Dual Audio
  • Language Hindi
  • Total size 1.3 GB
  • Uploaded By ExtraMovies
  • Downloads 4098
  • Last checked 1 month ago
  • Date uploaded 1 month ago
  • Seeders 28
  • Leechers 49

Transformers: The Last Knight

ActionScience FictionThrillerAdventure

In the absence of Optimus Prime, a battle for survival has commenced between the human race and the Transformers. Cade Yeager forms an alliance with Bumblebee, an English lord, and an Oxford professor to learn why the Transformers keep coming back to Earth.

Infohash : 6D17FEE8E3A6026703647D8792F686DF3D5A027D


Movie Info

General
Unique ID : 214735254320934528252537431960189107950 (0xA18C8171B420CE4F961EF7160C737EEE)
Complete name : Transformers The Last Knight 2017 Dual Audio [Hindi DD5.1-English] 720p BluRay x264 AAC ESubs - ExtraMovies.mkv
Format : Matroska
Format version : Version 4 / Version 2
File size : 1.32 GiB
Duration : 2 h 34 min
Overall bit rate : 1 225 kb/s
Movie name : ExtraMovies.cc - Transformers The Last Knight 2017 720p BRRip Dual Audio Hindi DD5.1+Eng x264 AAC ESubs
Encoded date : UTC 2017-10-19 05:40:56
Writing application : mkvmerge v17.0.0 ('Be Ur Friend') 64-bit
Writing library : libebml v1.3.5 + libmatroska v1.4.8

Video
ID : 1
Format : AVC
Format/Info : Advanced Video Codec
Format profile : [email protected]
Format settings : CABAC / 8 Ref Frames
Format settings, CABAC : Yes
Format settings, RefFrames : 8 frames
Codec ID : V_MPEG4/ISO/AVC
Duration : 2 h 34 min
Bit rate : 999 kb/s
Width : 1 280 pixels
Height : 544 pixels
Display aspect ratio : 2.35:1
Frame rate mode : Constant
Frame rate : 23.976 FPS
Color space : YUV
Chroma subsampling : 4:2:0
Bit depth : 8 bits
Scan type : Progressive
Bits/(Pixel*Frame) : 0.060
Stream size : 1.08 GiB (81%)
Title : ExtraMovies.cc
Writing library : x264 core 142 r2479 dd79a61
Encoding settings : cabac=1 / ref=8 / deblock=1:0:0 / analyse=0x3:0x113 / me=umh / subme=9 / psy=1 / psy_rd=1.00:0.00 / mixed_ref=1 / me_range=16 / chroma_me=1 / trellis=2 / 8x8dct=1 / cqm=0 / deadzone=21,11 / fast_pskip=1 / chroma_qp_offset=-2 / threads=12 / lookahead_threads=1 / sliced_threads=0 / nr=0 / decimate=1 / interlaced=0 / bluray_compat=0 / constrained_intra=0 / bframes=3 / b_pyramid=2 / b_adapt=2 / b_bias=0 / direct=3 / weightb=1 / open_gop=0 / weightp=2 / keyint=240 / keyint_min=24 / scenecut=40 / intra_refresh=0 / rc_lookahead=40 / rc=2pass / mbtree=1 / bitrate=999 / ratetol=1.0 / qcomp=0.60 / qpmin=0 / qpmax=69 / qpstep=4 / cplxblur=20.0 / qblur=0.5 / vbv_maxrate=62500 / vbv_bufsize=78125 / nal_hrd=none / filler=0 / ip_ratio=1.40 / aq=1:1.00
Default : Yes
Forced : No
Color range : Limited
Color primaries : BT.709
Transfer characteristics : BT.709
Matrix coefficients : BT.709

Audio #1
ID : 2
Format : AAC
Format/Info : Advanced Audio Codec
Format profile : LC
Codec ID : A_AAC-2
Duration : 2 h 34 min
Bit rate : 128 kb/s
Channel(s) : 6 channels
Channel positions : Front: L C R, Side: L R, LFE
Sampling rate : 48.0 kHz
Frame rate : 46.875 FPS (1024 SPF)
Compression mode : Lossy
Delay relative to video : -105 ms
Stream size : 142 MiB (10%)
Title : ExtraMovies.cc
Language : Hindi
Default : Yes
Forced : No

Audio #2
ID : 3
Format : AAC
Format/Info : Advanced Audio Codec
Format profile : HE-AAC / LC
Format settings : NBC
Codec ID : A_AAC-5
Duration : 2 h 34 min
Bit rate : 96.0 kb/s
Channel(s) : 2 channels
Channel positions : Front: L R
Sampling rate : 48.0 kHz / 24.0 kHz
Frame rate : 23.438 FPS (1024 SPF)
Compression mode : Lossy
Delay relative to video : -105 ms
Stream size : 106 MiB (8%)
Title : ExtraMovies.cc
Language : English
Default : No
Forced : No

Text
ID : 4
Format : UTF-8
Codec ID : S_TEXT/UTF8
Codec ID/Info : UTF-8 Plain Text
Duration : 2 h 25 min
Bit rate : 101 b/s
Count of elements : 2620
Stream size : 108 KiB (0%)
Title : ExtraMovies.cc
Language : English
Default : Yes
Forced : No












Thanks To Mr. Rajput For Hindi Audio


Files:

Transformers The Last Knight 2017 Dual Audio [Hindi DD5.1-English] 720p BluRay x264 AAC ESubs - ExtraMovies
  • Transformers The Last Knight 2017 Dual Audio [Hindi DD5.1-English] 720p BluRay x264 AAC ESubs - ExtraMovies.mkv (1.3 GB)
  • ExtraMovies.cc.txt (0.0 KB)

There are currently no comments. Feel free to leave one :)

Code:

  • udp://tracker.leechers-paradise.org:6969/announce