War for the Planet of the Apes 2017 Dual Audio [Hindi(Cleaned)+En...

  • Category Movies
  • Type Dubs/Dual Audio
  • Language Hindi
  • Total size 1.2 GB
  • Uploaded By ExtraMovies
  • Downloads 3776
  • Last checked 1 month ago
  • Date uploaded 1 month ago
  • Seeders 16
  • Leechers 7

War for the Planet of the Apes

ActionAdventureDramaScience Fiction

Caesar and his apes are forced into a deadly conflict with an army of humans led by a ruthless Colonel. After the apes suffer unimaginable losses, Caesar wrestles with his darker instincts and begins his own mythic quest to avenge his kind. As the journey finally brings them face to face, Caesar and the Colonel are pitted against each other in an epic battle that will determine the fate of both their species and the future of the planet.

Infohash : 6BCDB5B86B2BF87B8A0187A4B9C8F2A69CB75267


Movie Info

General
Unique ID : 215766535660100177903640312452542915907 (0xA2531F8A32165ACBB4B94F0B99706543)
Complete name : War for the Planet of the Apes 2017 Dual Audio [Hindi(Cleaned)+Eng] 720p HC HDRip x264 KORSUB - ExtraMovies.mkv
Format : Matroska
Format version : Version 4 / Version 2
File size : 1.19 GiB
Duration : 2 h 18 min
Overall bit rate : 1 225 kb/s
Movie name : ExtraMovies.ws - War for the Planet of the Apes 2017 720p HC HDRip x264 AAC KORSUB
Encoded date : UTC 2017-10-02 06:47:58
Writing application : mkvmerge v15.0.0 ('Duel with the Devil') 64-bit
Writing library : libebml v1.3.5 + libmatroska v1.4.5

Video
ID : 1
Format : AVC
Format/Info : Advanced Video Codec
Format profile : [email protected]
Format settings : CABAC / 8 Ref Frames
Format settings, CABAC : Yes
Format settings, RefFrames : 8 frames
Codec ID : V_MPEG4/ISO/AVC
Duration : 2 h 18 min
Bit rate : 999 kb/s
Width : 1 280 pixels
Height : 544 pixels
Display aspect ratio : 2.35:1
Frame rate mode : Variable
Frame rate : 23.976 (24000/1001) FPS
Color space : YUV
Chroma subsampling : 4:2:0
Bit depth : 8 bits
Scan type : Progressive
Bits/(Pixel*Frame) : 0.060
Stream size : 992 MiB (82%)
Title : ExtraMovies.ws
Writing library : x264 core 142 r2479 dd79a61
Encoding settings : cabac=1 / ref=8 / deblock=1:0:0 / analyse=0x3:0x113 / me=umh / subme=9 / psy=1 / psy_rd=1.00:0.00 / mixed_ref=1 / me_range=16 / chroma_me=1 / trellis=2 / 8x8dct=1 / cqm=0 / deadzone=21,11 / fast_pskip=1 / chroma_qp_offset=-2 / threads=12 / lookahead_threads=1 / sliced_threads=0 / nr=0 / decimate=1 / interlaced=0 / bluray_compat=0 / constrained_intra=0 / bframes=3 / b_pyramid=2 / b_adapt=2 / b_bias=0 / direct=3 / weightb=1 / open_gop=0 / weightp=2 / keyint=240 / keyint_min=24 / scenecut=40 / intra_refresh=0 / rc_lookahead=40 / rc=2pass / mbtree=1 / bitrate=999 / ratetol=1.0 / qcomp=0.60 / qpmin=0 / qpmax=69 / qpstep=4 / cplxblur=20.0 / qblur=0.5 / vbv_maxrate=62500 / vbv_bufsize=78125 / nal_hrd=none / filler=0 / ip_ratio=1.40 / aq=1:1.00
Default : Yes
Forced : No
Color range : Limited
Color primaries : BT.709
Transfer characteristics : BT.709
Matrix coefficients : BT.709

Audio #1
ID : 2
Format : AAC
Format/Info : Advanced Audio Codec
Format profile : LC
Codec ID : A_AAC-2
Duration : 2 h 18 min
Bit rate : 128 kb/s
Channel(s) : 2 channels
Channel positions : Front: L R
Sampling rate : 48.0 kHz
Frame rate : 46.875 FPS (1024 SPF)
Compression mode : Lossy
Delay relative to video : -229 ms
Stream size : 127 MiB (10%)
Title : ExtraMovies.ws
Language : Hindi
Default : Yes
Forced : No

Audio #2
ID : 3
Format : AAC
Format/Info : Advanced Audio Codec
Format profile : HE-AAC / LC
Format settings : NBC
Codec ID : A_AAC-5
Duration : 2 h 18 min
Bit rate : 96.0 kb/s
Channel(s) : 2 channels
Channel positions : Front: L R
Sampling rate : 22.05 kHz / 11.025 kHz
Frame rate : 10.767 FPS (1024 SPF)
Compression mode : Lossy
Delay relative to video : -229 ms
Stream size : 95.3 MiB (8%)
Title : ExtraMovies.ws
Language : English
Default : No
Forced : No

Text
ID : 4
Format : UTF-8
Codec ID : S_TEXT/UTF8
Codec ID/Info : UTF-8 Plain Text
Duration : 2 h 10 min
Bit rate : 16 b/s
Count of elements : 628
Stream size : 16.2 KiB (0%)
Title : ExtraMovies.ws
Language : English
Default : Yes
Forced : No












Note* Hindi Audio is cleaned and perfectly synced with the video


Files:

War for the Planet of the Apes 2017 Dual Audio [Hindi(Cleaned)+Eng] 720p HC HDRip x264 KORSUB - ExtraMovies
  • War for the Planet of the Apes 2017 Dual Audio [Hindi(Cleaned)+Eng] 720p HC HDRip x264 KORSUB - ExtraMovies.mkv (1.2 GB)
  • ExtraMovies.ws.txt (0.1 KB)

Comments

Code:

  • udp://tracker.leechers-paradise.org:6969/announce