The Revenant 2015 BRRip 720p English DD5.1 x264 AAC With [Hindi-E...

  • Category Movies
  • Type h.264/x264
  • Language English
  • Total size 1.2 GB
  • Uploaded By ExtraMovies
  • Downloads 5785
  • Last checked 2 months ago
  • Date uploaded 2 months ago
  • Seeders 47
  • Leechers 49

The Revenant

Centers on the 1820s' story of a frontiersman, Hugh Glass, who set out on a path of vengeance against those who left him for dead after a bear mauling.

Infohash : FE6C103E607D9713B4E971292944BB41DB60CB6B


Movie Info

General
Unique ID : 200658110388717835312399714634034645212 (0x96F558A99E70AA46B4C15A67B7E908DC)
Complete name : The Revenant 2015 BRRip 720p English DD5.1 x264 AAC With [Hindi-English Subtitles] - ExtraMovies.mkv
Format : Matroska
Format version : Version 4 / Version 2
File size : 1.23 GiB
Duration : 2 h 36 min
Overall bit rate : 1 128 kb/s
Movie name : ExtraMovies.ws - The Revenant 2015 720p BRRip English DD5.1 x264 AAC With Hindi+English Subtitles
Encoded date : UTC 2017-09-08 13:42:36
Writing application : mkvmerge v10.0.0 ('To Drown In You') 64bit
Writing library : libebml v1.3.4 + libmatroska v1.4.5

Video
ID : 1
Format : AVC
Format/Info : Advanced Video Codec
Format profile : [email protected]
Format settings, CABAC : Yes
Format settings, ReFrames : 8 frames
Codec ID : V_MPEG4/ISO/AVC
Duration : 2 h 36 min
Bit rate : 999 kb/s
Width : 1 280 pixels
Height : 544 pixels
Display aspect ratio : 2.35:1
Frame rate mode : Constant
Frame rate : 23.976 (23976/1000) FPS
Color space : YUV
Chroma subsampling : 4:2:0
Bit depth : 8 bits
Scan type : Progressive
Bits/(Pixel*Frame) : 0.060
Stream size : 1.09 GiB (88%)
Title : ExtraMovies.ws
Writing library : x264 core 142 r2479 dd79a61
Encoding settings : cabac=1 / ref=8 / deblock=1:0:0 / analyse=0x3:0x113 / me=umh / subme=9 / psy=1 / psy_rd=1.00:0.00 / mixed_ref=1 / me_range=16 / chroma_me=1 / trellis=2 / 8x8dct=1 / cqm=0 / deadzone=21,11 / fast_pskip=1 / chroma_qp_offset=-2 / threads=12 / lookahead_threads=1 / sliced_threads=0 / nr=0 / decimate=1 / interlaced=0 / bluray_compat=0 / constrained_intra=0 / bframes=3 / b_pyramid=2 / b_adapt=2 / b_bias=0 / direct=3 / weightb=1 / open_gop=0 / weightp=2 / keyint=240 / keyint_min=24 / scenecut=40 / intra_refresh=0 / rc_lookahead=60 / rc=2pass / mbtree=1 / bitrate=999 / ratetol=1.0 / qcomp=0.60 / qpmin=0 / qpmax=69 / qpstep=4 / cplxblur=20.0 / qblur=0.5 / vbv_maxrate=62500 / vbv_bufsize=78125 / nal_hrd=none / filler=0 / ip_ratio=1.40 / aq=1:1.00
Default : Yes
Forced : No
Color range : Limited
Color primaries : BT.709
Transfer characteristics : BT.709
Matrix coefficients : BT.709

Audio
ID : 2
Format : AAC
Format/Info : Advanced Audio Codec
Format profile : HE-AAC / LC
Codec ID : A_AAC
Duration : 2 h 36 min
Bit rate : 128 kb/s
Channel(s) : 6 channels
Channel positions : Front: L C R, Side: L R, LFE
Sampling rate : 48.0 kHz / 24.0 kHz
Frame rate : 23.438 FPS (1024 spf)
Compression mode : Lossy
Delay relative to video : -105 ms
Stream size : 143 MiB (11%)
Title : ExtraMovies.ws
Language : English
Default : Yes
Forced : No

Text #1
ID : 3
Format : VobSub
Muxing mode : zlib
Codec ID : S_VOBSUB
Codec ID/Info : Picture based subtitle format used on DVDs
Duration : 2 h 36 min
Bit rate : 937 b/s
Count of elements : 846
Stream size : 1.05 MiB (0%)
Title : ExtraMovies.ws
Language : Hindi
Default : Yes
Forced : No

Text #2
ID : 4
Format : UTF-8
Codec ID : S_TEXT/UTF8
Codec ID/Info : UTF-8 Plain Text
Duration : 2 h 25 min
Bit rate : 42 b/s
Count of elements : 1275
Stream size : 45.4 KiB (0%)
Title : ExtraMovies.ws
Language : English
Default : No
Forced : No












Note* It Contains Hindi PGS Format Subtiles Properly Synced To The Movie.


Files:

The Revenant 2015 BRRip 720p English DD5.1 x264 AAC With [Hindi-English Subtitles] - ExtraMovies
  • The Revenant 2015 BRRip 720p English DD5.1 x264 AAC With [Hindi-English Subtitles] - ExtraMovies.mkv (1.2 GB)
  • ExtraMovies.ws.txt (0.0 KB)

Comments

Code:

  • udp://tracker.coppersurfer.tk:6969/announce