Transformers The Last Knight 2017 Hindi(Cleaned)+Eng 720p HC HDRi...

  • Category Movies
  • Type Dubs/Dual Audio
  • Language Hindi
  • Total size 1.3 GB
  • Uploaded By ExtraMovies
  • Downloads 10950
  • Last checked 2 months ago
  • Date uploaded 2 months ago
  • Seeders 113
  • Leechers 85

Transformers: The Last Knight

ActionScience FictionThrillerAdventure

In the absence of Optimus Prime, a battle for survival has commenced between the human race and the Transformers. Cade Yeager forms an alliance with Bumblebee, an English lord, and an Oxford professor to learn why the Transformers keep coming back to Earth.

Infohash : 11A38133CC9B882B6239C8C6F0E7EB7C93C48299


Movie Info

General
Unique ID : 211692265634772805622483209070371531747 (0x9F427284C03D9E89A8E817F0F5D5EBE3)
Complete name : Transformers The Last Knight 2017 Hindi(Cleaned)+Eng 720p HC HDRip x264 AAC KORSUB - ExtraMovies.mkv
Format : Matroska
Format version : Version 4 / Version 2
File size : 1.26 GiB
Duration : 2 h 26 min
Overall bit rate : 1 226 kb/s
Movie name : ExtraMovies.ws - Transformers: The Last Knight 2017 720p HC HDRip Dual Audio Hindi(Cleaned)+Eng x264 AAC
Encoded date : UTC 2017-09-07 12:59:18
Writing application : mkvmerge v10.0.0 ('To Drown In You') 64bit
Writing library : libebml v1.3.4 + libmatroska v1.4.5

Video
ID : 1
Format : AVC
Format/Info : Advanced Video Codec
Format profile : [email protected]
Format settings, CABAC : Yes
Format settings, ReFrames : 8 frames
Codec ID : V_MPEG4/ISO/AVC
Duration : 2 h 26 min
Bit rate : 999 kb/s
Width : 1 280 pixels
Height : 544 pixels
Display aspect ratio : 2.35:1
Frame rate mode : Constant
Frame rate : 23.976 FPS
Color space : YUV
Chroma subsampling : 4:2:0
Bit depth : 8 bits
Scan type : Progressive
Bits/(Pixel*Frame) : 0.060
Stream size : 1.02 GiB (82%)
Title : ExtraMovies.ws
Writing library : x264 core 142 r2479 dd79a61
Encoding settings : cabac=1 / ref=8 / deblock=1:0:0 / analyse=0x3:0x113 / me=umh / subme=9 / psy=1 / psy_rd=1.00:0.00 / mixed_ref=1 / me_range=16 / chroma_me=1 / trellis=2 / 8x8dct=1 / cqm=0 / deadzone=21,11 / fast_pskip=1 / chroma_qp_offset=-2 / threads=12 / lookahead_threads=1 / sliced_threads=0 / nr=0 / decimate=1 / interlaced=0 / bluray_compat=0 / constrained_intra=0 / bframes=3 / b_pyramid=2 / b_adapt=2 / b_bias=0 / direct=3 / weightb=1 / open_gop=0 / weightp=2 / keyint=240 / keyint_min=24 / scenecut=40 / intra_refresh=0 / rc_lookahead=60 / rc=2pass / mbtree=1 / bitrate=999 / ratetol=1.0 / qcomp=0.60 / qpmin=0 / qpmax=69 / qpstep=4 / cplxblur=20.0 / qblur=0.5 / vbv_maxrate=62500 / vbv_bufsize=78125 / nal_hrd=none / filler=0 / ip_ratio=1.40 / aq=1:1.00
Language : Hindi
Default : Yes
Forced : No
Color range : Limited
Color primaries : BT.709
Transfer characteristics : BT.709
Matrix coefficients : BT.709

Audio #1
ID : 2
Format : AAC
Format/Info : Advanced Audio Codec
Format profile : LC
Codec ID : A_AAC
Duration : 2 h 26 min
Bit rate : 128 kb/s
Channel(s) : 2 channels
Channel positions : Front: L R
Sampling rate : 48.0 kHz
Frame rate : 46.875 FPS (1024 spf)
Compression mode : Lossy
Delay relative to video : -146 ms
Stream size : 134 MiB (10%)
Title : ExtraMovies.ws
Language : Hindi
Default : Yes
Forced : No

Audio #2
ID : 3
Format : AAC
Format/Info : Advanced Audio Codec
Format profile : HE-AAC / LC
Codec ID : A_AAC
Duration : 2 h 26 min
Bit rate : 96.0 kb/s
Channel(s) : 2 channels
Channel positions : Front: L R
Sampling rate : 44.1 kHz / 22.05 kHz
Frame rate : 21.533 FPS (1024 spf)
Compression mode : Lossy
Delay relative to video : -115 ms
Stream size : 101 MiB (8%)
Title : ExtraMovies.ws
Language : English
Default : No
Forced : No












Note* Hindi Audio is cleaned and perfectly synced with the video


Files:

Transformers The Last Knight 2017 Hindi(Cleaned)+Eng 720p HC HDRip x264 AAC KORSUB - ExtraMovies
  • Transformers The Last Knight 2017 Hindi(Cleaned)+Eng 720p HC HDRip x264 AAC KORSUB - ExtraMovies.mkv (1.3 GB)
  • ExtraMovies.ws.txt (0.0 KB)

Comments

Code:

  • udp://tracker.coppersurfer.tk:6969/announce