Baywatch 2017 Extended 720p BluRay Dual Audio ORG [Hindi DD5.1-En...

  • Category Movies
  • Type Dubs/Dual Audio
  • Language Hindi
  • Total size 1.3 GB
  • Uploaded By ExtraMovies
  • Downloads 4308
  • Last checked 2 months ago
  • Date uploaded 2 months ago
  • Seeders 48
  • Leechers 56

Baywatch

ActionComedy

Devoted lifeguard Mitch Buchannon butts heads with a brash new recruit. Together, they uncover a local criminal plot that threatens the future of the Bay.

Infohash : DF60C7E46A6ABE7B27B158860493D3932FA53F56


Movie Info

General
Unique ID                                : 198697984550091454036308363775931599242 (0x957BD6FF530CAD919C6221B772D0498A)
Complete name                            : Baywatch 2017 Extended 720p BluRay Dual Audio ORG [Hindi DD5.1-English DD5.1] x264 ESubs ExtraMovies.mkv
Format                                   : Matroska
Format version                           : Version 4 / Version 2
File size                                : 1.26 GiB
Duration                                 : 2 h 1 min
Overall bit rate                         : 1 480 kb/s
Movie name                               : ExtraMovies.ws - Baywatch 2017 UnRated 720p BRRip Dual Audio Hindi DD5.1+Eng x264 AAC ESubs
Encoded date                             : UTC 2017-09-05 07:24:48
Writing application                      : mkvmerge v10.0.0 ('To Drown In You') 64bit
Writing library                          : libebml v1.3.4 + libmatroska v1.4.5

Video
ID                                       : 1
Format                                   : AVC
Format/Info                              : Advanced Video Codec
Format profile                           : [email protected]
Format settings, CABAC                   : Yes
Format settings, ReFrames                : 8 frames
Codec ID                                 : V_MPEG4/ISO/AVC
Duration                                 : 2 h 1 min
Bit rate                                 : 999 kb/s
Width                                    : 1 280 pixels
Height                                   : 544 pixels
Display aspect ratio                     : 2.35:1
Frame rate mode                          : Constant
Frame rate                               : 23.976 (23976/1000) FPS
Color space                              : YUV
Chroma subsampling                       : 4:2:0
Bit depth                                : 8 bits
Scan type                                : Progressive
Bits/(Pixel*Frame)                       : 0.060
Stream size                              : 867 MiB (67%)
Title                                    : ExtraMovies.ws
Writing library                          : x264 core 142 r2479 dd79a61
Encoding settings                        : cabac=1 / ref=8 / deblock=1:0:0 / analyse=0x3:0x113 / me=umh / subme=9 / psy=1 / psy_rd=1.00:0.00 / mixed_ref=1 / me_range=16 / chroma_me=1 / trellis=2 / 8x8dct=1 / cqm=0 / deadzone=21,11 / fast_pskip=1 / chroma_qp_offset=-2 / threads=12 / lookahead_threads=1 / sliced_threads=0 / nr=0 / decimate=1 / interlaced=0 / bluray_compat=0 / constrained_intra=0 / bframes=3 / b_pyramid=2 / b_adapt=2 / b_bias=0 / direct=3 / weightb=1 / open_gop=0 / weightp=2 / keyint=240 / keyint_min=24 / scenecut=40 / intra_refresh=0 / rc_lookahead=60 / rc=2pass / mbtree=1 / bitrate=999 / ratetol=1.0 / qcomp=0.60 / qpmin=0 / qpmax=69 / qpstep=4 / cplxblur=20.0 / qblur=0.5 / vbv_maxrate=62500 / vbv_bufsize=78125 / nal_hrd=none / filler=0 / ip_ratio=1.40 / aq=1:1.00
Default                                  : Yes
Forced                                   : No
Color range                              : Limited
Color primaries                          : BT.709
Transfer characteristics                 : BT.709
Matrix coefficients                      : BT.709

Audio #1
ID                                       : 2
Format                                   : AC-3
Format/Info                              : Audio Coding 3
Mode extension                           : CM (complete main)
Format settings, Endianness              : Big
Codec ID                                 : A_AC3
Duration                                 : 2 h 1 min
Bit rate mode                            : Constant
Bit rate                                 : 384 kb/s
Channel(s)                               : 6 channels
Channel positions                        : Front: L C R, Side: L R, LFE
Sampling rate                            : 48.0 kHz
Frame rate                               : 31.250 FPS (1536 spf)
Bit depth                                : 16 bits
Compression mode                         : Lossy
Delay relative to video                  : -105 ms
Stream size                              : 333 MiB (26%)
Title                                    : ExtraMovies.ws
Language                                 : Hindi
Default                                  : Yes
Forced                                   : No

Audio #2
ID                                       : 3
Format                                   : AAC
Format/Info                              : Advanced Audio Codec
Format profile                           : HE-AAC / LC
Codec ID                                 : A_AAC
Duration                                 : 2 h 1 min
Bit rate                                 : 96.0 kb/s
Channel(s)                               : 6 channels
Channel positions                        : Front: L C R, Side: L R, LFE
Sampling rate                            : 48.0 kHz / 24.0 kHz
Frame rate                               : 23.438 FPS (1024 spf)
Compression mode                         : Lossy
Delay relative to video                  : -105 ms
Stream size                              : 83.3 MiB (6%)
Title                                    : ExtraMovies.ws
Language                                 : English
Default                                  : No
Forced                                   : No

Text
ID                                       : 4
Format                                   : UTF-8
Codec ID                                 : S_TEXT/UTF8
Codec ID/Info                            : UTF-8 Plain Text
Duration                                 : 1 h 56 min
Bit rate                                 : 104 b/s
Count of elements                        : 2430
Stream size                              : 89.7 KiB (0%)
Title                                    : ExtraMovies.ws
Language                                 : English
Default                                  : Yes
Forced                                   : No












Note* All The Extended And UnRated Scenes Are In English


Files:

Baywatch 2017 Extended 720p BluRay Dual Audio ORG [Hindi DD5.1-English DD5.1] x264 ESubs ExtraMovies
  • Baywatch 2017 Extended 720p BluRay Dual Audio ORG [Hindi DD5.1-English DD5.1] x264 ESubs ExtraMovies.mkv (1.3 GB)
  • ExtraMovies.ws.txt (0.0 KB)

Comments

Code:

  • udp://tracker.coppersurfer.tk:6969/announce