The Mummy 2017 BluRay 720p Dual Audio [Hindi (Cleaned)-English] x...

  • Category Movies
  • Type Dubs/Dual Audio
  • Language Hindi
  • Total size 973.3 MB
  • Uploaded By ExtraMovies
  • Downloads 5142
  • Last checked 2 months ago
  • Date uploaded 2 months ago
  • Seeders 65
  • Leechers 47

The Mummy

ActionAdventureFantasyHorrorThriller

Though safely entombed in a crypt deep beneath the unforgiving desert, an ancient queen whose destiny was unjustly taken from her is awakened in our current day, bringing with her malevolence grown over millennia, and terrors that defy human comprehension.

Infohash : F5406812F5D36223F2EB0DA9993E60F16130B2AC


Movie Info

General
Unique ID                                : 249702763678497007606079792276959327531 (0xBBDB00C310D310969785A8234A12F52B)
Complete name                            : The Mummy 2017 BluRay 720p Dual Audio [Hindi (Cleaned)-English] x264 ESubs - ExtraMovies.mkv
Format                                   : Matroska
Format version                           : Version 4 / Version 2
File size                                : 965 MiB
Duration                                 : 1 h 50 min
Overall bit rate                         : 1 225 kb/s
Movie name                               : ExtraMovies.ws - The Mummy 2017 720p BRRip Dual Audio Hindi(Cleaned)+Eng x264 AAC ESubs
Encoded date                             : UTC 2017-08-30 09:22:53
Writing application                      : mkvmerge v10.0.0 ('To Drown In You') 64bit
Writing library                          : libebml v1.3.4 + libmatroska v1.4.5

Video
ID                                       : 1
Format                                   : AVC
Format/Info                              : Advanced Video Codec
Format profile                           : [email protected]
Format settings, CABAC                   : Yes
Format settings, ReFrames                : 8 frames
Codec ID                                 : V_MPEG4/ISO/AVC
Duration                                 : 1 h 50 min
Bit rate                                 : 999 kb/s
Width                                    : 1 280 pixels
Height                                   : 544 pixels
Display aspect ratio                     : 2.35:1
Frame rate mode                          : Constant
Frame rate                               : 23.976 (23976/1000) FPS
Color space                              : YUV
Chroma subsampling                       : 4:2:0
Bit depth                                : 8 bits
Scan type                                : Progressive
Bits/(Pixel*Frame)                       : 0.060
Stream size                              : 786 MiB (82%)
Title                                    : ExtraMovies.ws
Writing library                          : x264 core 142 r2479 dd79a61
Encoding settings                        : cabac=1 / ref=8 / deblock=1:0:0 / analyse=0x3:0x113 / me=umh / subme=9 / psy=1 / psy_rd=1.00:0.00 / mixed_ref=1 / me_range=16 / chroma_me=1 / trellis=2 / 8x8dct=1 / cqm=0 / deadzone=21,11 / fast_pskip=1 / chroma_qp_offset=-2 / threads=12 / lookahead_threads=1 / sliced_threads=0 / nr=0 / decimate=1 / interlaced=0 / bluray_compat=0 / constrained_intra=0 / bframes=3 / b_pyramid=2 / b_adapt=2 / b_bias=0 / direct=3 / weightb=1 / open_gop=0 / weightp=2 / keyint=240 / keyint_min=24 / scenecut=40 / intra_refresh=0 / rc_lookahead=60 / rc=2pass / mbtree=1 / bitrate=999 / ratetol=1.0 / qcomp=0.60 / qpmin=0 / qpmax=69 / qpstep=4 / cplxblur=20.0 / qblur=0.5 / vbv_maxrate=62500 / vbv_bufsize=78125 / nal_hrd=none / filler=0 / ip_ratio=1.40 / aq=1:1.00
Default                                  : Yes
Forced                                   : No
Color range                              : Limited
Color primaries                          : BT.709
Transfer characteristics                 : BT.709
Matrix coefficients                      : BT.709

Audio #1
ID                                       : 2
Format                                   : AAC
Format/Info                              : Advanced Audio Codec
Format profile                           : LC
Codec ID                                 : A_AAC
Duration                                 : 1 h 50 min
Bit rate                                 : 128 kb/s
Channel(s)                               : 2 channels
Channel positions                        : Front: L R
Sampling rate                            : 48.0 kHz
Frame rate                               : 46.875 FPS (1024 spf)
Compression mode                         : Lossy
Delay relative to video                  : -105 ms
Stream size                              : 101 MiB (10%)
Title                                    : ExtraMovies.ws
Language                                 : Hindi
Default                                  : Yes
Forced                                   : No

Audio #2
ID                                       : 3
Format                                   : AAC
Format/Info                              : Advanced Audio Codec
Format profile                           : HE-AACv2 / HE-AAC / LC
Codec ID                                 : A_AAC
Duration                                 : 1 h 50 min
Bit rate                                 : 96.0 kb/s
Channel(s)                               : 2 channels / 6 channels / 6 channels
Channel positions                        : Front: L R / Front: L C R, Side: L R, LFE / Front: L C R, Side: L R, LFE
Sampling rate                            : 48.0 kHz / 48.0 kHz / 24.0 kHz
Frame rate                               : 23.438 FPS (1024 spf)
Compression mode                         : Lossy
Delay relative to video                  : -105 ms
Stream size                              : 75.6 MiB (8%)
Title                                    : ExtraMovies.ws
Language                                 : English
Default                                  : No
Forced                                   : No

Text
ID                                       : 4
Format                                   : UTF-8
Codec ID                                 : S_TEXT/UTF8
Codec ID/Info                            : UTF-8 Plain Text
Duration                                 : 1 h 39 min
Bit rate                                 : 71 b/s
Count of elements                        : 1358
Stream size                              : 52.4 KiB (0%)
Title                                    : ExtraMovies.ws
Language                                 : English
Default                                  : Yes
Forced                                   : No












Note* Hindi Audio is Cam Cleaned And Lip To Lip Sync With The Video
Sample Included In Torrent


Files:

The Mummy 2017 BluRay 720p Dual Audio [Hindi (Cleaned)-English] x264 ESubs - ExtraMovies
  • The Mummy 2017 BluRay 720p Dual Audio [Hindi (Cleaned)-English] x264 ESubs - ExtraMovies.mkv (965.0 MB)
  • Sample.mkv (8.4 MB)
  • ExtraMovies.ws.txt (0.1 KB)

There are currently no comments. Feel free to leave one :)

Code:

  • udp://tracker.coppersurfer.tk:6969/announce