Wrong Side Raju 2016 720p Gurajati DVDRip x264 AAC DD5.1 ESubs - ...

  • Category Movies
  • Type DVD
  • Language Gujarati
  • Total size 1.1 GB
  • Uploaded By ExtraMovies
  • Downloads 2730
  • Last checked 2 months ago
  • Date uploaded 2 months ago
  • Seeders 11
  • Leechers 22

Wrong Side Raju

ThrillerDrama

A driver named Raju embarks on an extraordinary journey of redemption by forever changing lives of 3 people due to a controversial hit and run accident.

Infohash : 7DDD386B02CECCAB211CD58D0C7B1DBBCE7EF77A


Movie Info

General
Unique ID : 201065547655731934282716626062474846537 (0x9743D0DEEB5A51AB9A96DC6D1581A149)
Complete name : Wrong Side Raju 2016 720p Gurajati DVDRip x264 AAC DD5.1 ESubs - ExtraMovies.mkv
Format : Matroska
Format version : Version 4 / Version 2
File size : 1.09 GiB
Duration : 2 h 18 min
Overall bit rate : 1 129 kb/s
Movie name : ExtraMovies.ws - Wrong Side Raju 2016 720p DVDRip Gujarati DD5.1 x264 AAC ESubs
Encoded date : UTC 2017-08-28 16:33:45
Writing application : mkvmerge v10.0.0 ('To Drown In You') 64bit
Writing library : libebml v1.3.4 + libmatroska v1.4.5

Video
ID : 1
Format : AVC
Format/Info : Advanced Video Codec
Format profile : [email protected]
Format settings, CABAC : Yes
Format settings, ReFrames : 8 frames
Codec ID : V_MPEG4/ISO/AVC
Duration : 2 h 18 min
Bit rate : 999 kb/s
Width : 1 280 pixels
Height : 544 pixels
Display aspect ratio : 2.35:1
Frame rate mode : Variable
Frame rate : 23.976 (23976/1000) FPS
Color space : YUV
Chroma subsampling : 4:2:0
Bit depth : 8 bits
Scan type : Progressive
Bits/(Pixel*Frame) : 0.060
Stream size : 989 MiB (88%)
Title : ExtraMovies.ws
Writing library : x264 core 142 r2479 dd79a61
Encoding settings : cabac=1 / ref=8 / deblock=1:0:0 / analyse=0x3:0x113 / me=umh / subme=9 / psy=1 / psy_rd=1.00:0.00 / mixed_ref=1 / me_range=16 / chroma_me=1 / trellis=2 / 8x8dct=1 / cqm=0 / deadzone=21,11 / fast_pskip=1 / chroma_qp_offset=-2 / threads=12 / lookahead_threads=1 / sliced_threads=0 / nr=0 / decimate=1 / interlaced=0 / bluray_compat=0 / constrained_intra=0 / bframes=3 / b_pyramid=2 / b_adapt=2 / b_bias=0 / direct=3 / weightb=1 / open_gop=0 / weightp=2 / keyint=240 / keyint_min=24 / scenecut=40 / intra_refresh=0 / rc_lookahead=60 / rc=2pass / mbtree=1 / bitrate=999 / ratetol=1.0 / qcomp=0.60 / qpmin=0 / qpmax=69 / qpstep=4 / cplxblur=20.0 / qblur=0.5 / vbv_maxrate=62500 / vbv_bufsize=78125 / nal_hrd=none / filler=0 / ip_ratio=1.40 / aq=1:1.00
Default : Yes
Forced : No
Color range : Limited
Color primaries : BT.601 NTSC
Transfer characteristics : BT.709
Matrix coefficients : BT.601

Audio
ID : 2
Format : AAC
Format/Info : Advanced Audio Codec
Format profile : HE-AAC / LC
Codec ID : A_AAC
Duration : 2 h 18 min
Bit rate : 128 kb/s
Channel(s) : 6 channels
Channel positions : Front: L C R, Side: L R, LFE
Sampling rate : 48.0 kHz / 24.0 kHz
Frame rate : 23.438 FPS (1024 spf)
Compression mode : Lossy
Delay relative to video : -105 ms
Stream size : 127 MiB (11%)
Title : ExtraMovies.ws
Language : Gujarati
Default : Yes
Forced : No

Text
ID : 3
Format : UTF-8
Codec ID : S_TEXT/UTF8
Codec ID/Info : UTF-8 Plain Text
Duration : 2 h 14 min
Bit rate : 55 b/s
Count of elements : 1674
Stream size : 55.1 KiB (0%)
Title : ExtraMovies.ws
Language : English
Default : Yes
Forced : No












Sample Included In Torrent

Files:

Wrong Side Raju 2016 720p Gurajati DVDRip x264 AAC DD5.1 ESubs - ExtraMovies
  • Wrong Side Raju 2016 720p Gurajati DVDRip x264 AAC DD5.1 ESubs - ExtraMovies.mkv (1.1 GB)
  • Sample.mkv (8.1 MB)
  • ExtraMovies.ws.txt (0.1 KB)

Comments

Code:

  • udp://tracker.coppersurfer.tk:6969/announce